Ссылка на приватное зеркало нашего сайта всего за 1$. Внимание количество ограничено!!!

2 сезон

iTunes

1 сезон

1

2 сезон

2 сезон

iTunes

1 сезон

RePack

30

Новинка

ВАЖНО

ИГРА 18+

pack

RePack

MK11
pack

Забери бонус

RePack

jed

!!Акция!!

Alien_Rage

RePack

fifa19

RePack

Assassins Creed: Odyssey

RePack

NEED FOR SPEED™ PAYBACK

4 сезон

9 сезон

Бесстыжие 9 сезон

Все сериалы

все сериалы на PB.wtf

RePack

FAR CRY 5
  

Смертельные добродетели: Люби, чти, подчиняйся. / Deadly Virtues: Love.Honour.Obey. (Ате де Йонг) [2013, триллер, драма, BDRip 720p, Любительский (двухголосый) [den904, DeadSno] pb.wtf

Смертельные добродетели: Люби, чти, подчиняйся. через торрент pb.wtf

Размер: 3.39 GB | Добавлен: 5 лет 2 мес. назад | Торрент скачан:23 раза
Скачать  

04-09-2015 16:58 Смертельные добродетели: Люби, чти, подчиняйся. Скачать торрент  


Смертельные добродетели: Люби, чти, подчиняйся. / Deadly Virtues: Love.Honour.Obey.


ИНФОРМАЦИЯ:
Год выпуска:2013
Страна: Великобритания, Нидерланды
Жанр: триллер, драма
Продолжительность: 01:26:57
Перевод: Любительский (двухголосый) [den904, DeadSno]
Режиссер: Ате де Йонг

В Ролях:


Эдвард Экрут (Aaron), Мэтт Барбер (Tom), Меган Мачко (Alison), Хелен Брэдбери (Sarah), Сэди Фрост (Beautiful Woman), Энди Дави (Business Man), Нэйтан Гэмбрилл (Boy with dog), Адам Патель (Businessman), Пол Роджерс (Dog Walker)

Описание:
Как-то раз замужняя пара Том и Элисон решили заняться любовью, как вдруг в дом врывается какой-то психопат и нападает на них. Придя в себя супруги обнаруживают, что связаны. Все пытки и издевательства, которым будет подвергать пару Аарон, имеют лишь одну цель - сделать явными все тайны их брака и показать его истинную сущность...

  • Мировая премьера:11 апреля 2014

    ТЕХ.ДАННЫЕ:
    Качество: BDRip 720p
    Формат: MKV
    Видео кодек: AVC
    Аудио кодек: AC3, DTS
    Видео: AVC, 1280x568 (2.25:1), 4614 kbps, 25 fps, 0,254 bpp
    Аудио №1: русский / AC3 / 2.0 / 48 kHz / 192 kbps / 16 bit ||
    Аудио №2: английский / DTS / 5.1 / 48 kHz / 755 kbps / 24 bit


    General
    Unique ID : 224167942030688974503531269383556975838 (0xA8A52CDABFF0E78B92005FC4D1304CDE)
    Complete name : D:\Торенты\Smerteljnye.dobrodeteli.2014.BDRip.720p.mkv
    Format : Matroska
    Format version : Version 4 / Version 2
    File size : 3.39 GiB
    Duration : 1h 26mn
    Overall bit rate : 5 575 Kbps
    Encoded date : UTC 2015-09-04 02:11:14
    Writing application : mkvmerge v6.8.0 ('Theme for Great Cities') 64bit built on Mar 2 2014 21:34:26
    Writing library : libebml v1.3.0 + libmatroska v1.4.1

    Video
    ID : 1
    Format : AVC
    Format/Info : Advanced Video Codec
    Format profile : High@L4.1
    Format settings, CABAC : Yes
    Format settings, ReFrames : 5 frames
    Codec ID : V_MPEG4/ISO/AVC
    Duration : 1h 26mn
    Bit rate : 4 614 Kbps
    Width : 1 280 pixels
    Height : 568 pixels
    Display aspect ratio : 2.25:1
    Frame rate : 25.000 fps
    Color space : YUV
    Chroma subsampling : 4:2:0
    Bit depth : 8 bits
    Scan type : Progressive
    Bits/(Pixel*Frame) : 0.254
    Stream size : 2.74 GiB (81%)
    Writing library : x264 core 148 r2597 e86f3a1
    Encoding settings : cabac=1 / ref=5 / deblock=1:0:0 / analyse=0x3:0x113 / me=umh / subme=8 / psy=1 / psy_rd=1.00:0.00 / mixed_ref=1 / me_range=16 / chroma_me=1 / trellis=1 / 8x8dct=1 / cqm=0 / deadzone=21,11 / fast_pskip=0 / chroma_qp_offset=-2 / threads=12 / lookahead_threads=2 / sliced_threads=0 / nr=0 / decimate=1 / interlaced=0 / bluray_compat=0 / constrained_intra=0 / bframes=3 / b_pyramid=2 / b_adapt=2 / b_bias=0 / direct=3 / weightb=1 / open_gop=0 / weightp=2 / keyint=250 / keyint_min=25 / scenecut=40 / intra_refresh=0 / rc_lookahead=50 / rc=2pass / mbtree=1 / bitrate=4614 / ratetol=1.0 / qcomp=0.60 / qpmin=0 / qpmax=69 / qpstep=4 / cplxblur=20.0 / qblur=0.5 / ip_ratio=1.40 / aq=1:1.00
    Language : English
    Default : Yes
    Forced : No

    Audio #1
    ID : 2
    Format : AC-3
    Format/Info : Audio Coding 3
    Mode extension : CM (complete main)
    Codec ID : A_AC3
    Duration : 1h 26mn
    Bit rate mode : Constant
    Bit rate : 192 Kbps
    Channel(s) : 2 channels
    Channel positions : Front: L R
    Sampling rate : 48.0 KHz
    Bit depth : 16 bits
    Compression mode : Lossy
    Stream size : 119 MiB (3%)
    Language : Russian
    Default : Yes
    Forced : Yes

    Audio #2
    ID : 3
    Format : DTS
    Format/Info : Digital Theater Systems
    Codec ID : A_DTS
    Duration : 1h 26mn
    Bit rate mode : Constant
    Bit rate : 755 Kbps
    Channel(s) : 6 channels
    Channel positions : Front: L C R, Side: L R, LFE
    Sampling rate : 48.0 KHz
    Bit depth : 24 bits
    Compression mode : Lossy
    Stream size : 469 MiB (14%)
    Language : English
    Default : No
    Forced : No
    Скриншоты:


    © Оформление by Ворон
    pb.wtf



  • Скачать Смертельные добродетели: Люби, чти, подчиняйся. через торрент http://pic.kartinco.top/images/6/ordi9.jpg Скачать фильм Смертельные добродетели: Люби, чти, подчиняйся. через торрент бесплантно в хорошем качестве Описание: Как-то раз замужняя пара Том и Элисон решили заняться любовью, как вдруг в дом врывается какой-то психопат и нападает на них. ... 10 10 3
    Торрент: Зарегистрирован [2015-09-04 16:58] · скачан: 23 раз
    Статус: T временная
    Размер: 3.39 GB
    Как cкачать? Как скачать Смертельные добродетели: Люби, чти, подчиняйся. через торрент | qTorrent

    % Раздел Тема Автор DL S | L
    Фильмы 2014 (Звук TS, Cam, VO, DVO) [ 1.46 GB ] Смертельные добродетели. Люби чти подчиняйся. / Deadly Virtues: Love.Honour.Obey. [2014 DVDRip] DVO Ворон Скачать
    1 | 0
    T Фильмы 2014 (Звук TS, Cam, VO, DVO) [ 1.46 GB ] Смертельные добродетели. Люби чти подчиняйся. / Deadly Virtues: Love.Honour.Obey. [2014 DVDRip Любительский [den904 DeadSno] Ворон Скачать
    1 | 0

    28-11-2019 20:33  

    Отключить всю рекламу на сайте

      Дорогой пользователь! Огромная просьба, поблагодарите релизера, оцените раздачу и оставьте свои комментарий, если Вы скачали Смертельные добродетели: Люби, чти, подчиняйся. через торрент бесплатно! Внесите свою лепту в развитие PiratBit!
      Комментировать посты могут только пользователи прошедшие не сложную регистрацию
      Показать сообщения:    

      Смертельные добродетели: Люби, чти, подчиняйся. через торрент
      Скачать бесплатно Смертельные добродетели: Люби, чти, подчиняйся.
      Смертельные добродетели: Люби, чти, подчиняйся. скачать торрент
      Смертельные добродетели: Люби, чти, подчиняйся. смотреть онлайн
      Cкачать фильм Смертельные добродетели: Люби, чти, подчиняйся. бесплатно
      Смертельные добродетели: Люби, чти, подчиняйся. скачать торрент в хорошем качестве
      Смертельные добродетели: Люби, чти, подчиняйся. смотреть онлайн бесплатно в хорошем качестве


      Вы не можете начинать темы
      Вы не можете отвечать на сообщения
      Вы не можете редактировать свои сообщения
      Вы не можете удалять свои сообщения
      Вы не можете голосовать в опросах
      Вы не можете прикреплять файлы к сообщениям
      Вы можете скачивать файлы