Ссылка на приватное зеркало нашего сайта всего за 1$. Внимание количество ограничено!!!

2 сезон

iTunes

1 сезон

1

2 сезон

2 сезон

iTunes

1 сезон

RePack

30

Новинка

ВАЖНО

ИГРА 18+

pack

RePack

MK11
pack

Забери бонус

RePack

jed

!!Акция!!

Alien_Rage

RePack

fifa19

RePack

Assassins Creed: Odyssey

RePack

NEED FOR SPEED™ PAYBACK

4 сезон

9 сезон

Бесстыжие 9 сезон

Все сериалы

все сериалы на PB.wtf

RePack

FAR CRY 5
  

Пережитки прошлого (Последствия) / Aftermath (Петер Энгерт) [2012, боевик, триллер, BDRip 1080p, Любительский (одноголосый) [Xixidok] pb.wtf

Пережитки прошлого через торрент pb.wtf

Размер: 7.53 GB | Добавлен: 5 лет 3 мес. назад | Торрент скачан:13 раз
Скачать  

04-09-2015 17:06 Пережитки прошлого Скачать торрент  


Пережитки прошлого (Последствия) / Aftermath
««You are NOT safe»»

ИНФОРМАЦИЯ:
Год выпуска:2012
Страна: США
Жанр: боевик, триллер
Продолжительность: 01:32:04
Перевод: Любительский (одноголосый) [Xixidok]
Субтитры: английские,
Режиссер: Петер Энгерт

В Ролях:


С.Дж. Томасон (Hunter), Моника Кина (Elizabeth), Эдвард Ферлонг (Brad), Андре Ройо (Rob), Кри Келли (Angie), Джесси Русу (Jennifer), Росс Бритс (Jonathan), Тоди Бернард (Wendell), Кеннон Кеппер (Satchel), Уильям Болдуин (Shane, озвучка), Рендал Ридер (Cowboy Hat), Бо Митчелл (Cowboy Hat's Son)

Описание:
История девяти незнакомцев оказавшихся в результате цепочки ужасных событий и стихийных бедствий в погребе сельского дома в Техасе. Вместе они пытаются перенести последствия ядерного удара, а также справиться со своими эмоциями и противоречиями.

  • Мировая премьера:26 августа 2014

    ТЕХ.ДАННЫЕ:
    Качество: BDRip 1080p
    Формат: MKV
    Видео кодек: AVC
    Аудио кодек: DTS
    Видео: AVC, 1920x1080 (16:9), 8687 kbps, 23,976 fps, 0,175 bpp
    Аудио №1: русский / DTS / 5.1 / 48 kHz / 1510 kbps / 24 bit ||
    Аудио №2: английский / DTS / 5.1 / 48 kHz / 1510 kbps / 24 bit


    General
    Unique ID : 171446072313105526939106980769072240734 (0x80FB4FFCD2F54EE1B01EE0E46BE5585E)
    Complete name : D:\Торенты\Aftermath.2012.1080p.BDRip.x264.mkv
    Format : Matroska
    Format version : Version 4 / Version 2
    File size : 7.53 GiB
    Duration : 1h 32mn
    Overall bit rate : 11.7 Mbps
    Encoded date : UTC 2015-09-03 18:57:18
    Writing application : mkvmerge v6.9.1 ('Blue Panther') 64bit built on Apr 18 2014 18:23:38
    Writing library : libebml v1.3.0 + libmatroska v1.4.1

    Video
    ID : 1
    Format : AVC
    Format/Info : Advanced Video Codec
    Format profile : High@L4.1
    Format settings, CABAC : Yes
    Format settings, ReFrames : 4 frames
    Codec ID : V_MPEG4/ISO/AVC
    Duration : 1h 32mn
    Bit rate : 8 687 Kbps
    Width : 1 920 pixels
    Height : 1 080 pixels
    Display aspect ratio : 16:9
    Frame rate : 23.976 fps
    Color space : YUV
    Chroma subsampling : 4:2:0
    Bit depth : 8 bits
    Scan type : Progressive
    Bits/(Pixel*Frame) : 0.175
    Stream size : 5.44 GiB (72%)
    Writing library : x264 core 142 r2479 dd79a61
    Encoding settings : cabac=1 / ref=4 / deblock=1:0:0 / analyse=0x3:0x133 / me=umh / subme=8 / psy=1 / psy_rd=1.00:0.00 / mixed_ref=1 / me_range=16 / chroma_me=1 / trellis=1 / 8x8dct=1 / cqm=0 / deadzone=21,11 / fast_pskip=0 / chroma_qp_offset=-2 / threads=12 / lookahead_threads=2 / sliced_threads=0 / nr=0 / decimate=1 / interlaced=0 / bluray_compat=0 / constrained_intra=0 / bframes=3 / b_pyramid=2 / b_adapt=1 / b_bias=0 / direct=1 / weightb=1 / open_gop=0 / weightp=2 / keyint=250 / keyint_min=23 / scenecut=40 / intra_refresh=0 / rc_lookahead=40 / rc=2pass / mbtree=1 / bitrate=8687 / ratetol=1.0 / qcomp=0.60 / qpmin=0 / qpmax=69 / qpstep=4 / cplxblur=20.0 / qblur=0.5 / ip_ratio=1.40 / aq=1:1.00
    Language : English
    Default : Yes
    Forced : No

    Audio #1
    ID : 2
    Format : DTS
    Format/Info : Digital Theater Systems
    Codec ID : A_DTS
    Duration : 1h 32mn
    Bit rate mode : Constant
    Bit rate : 1 510 Kbps
    Channel(s) : 6 channels
    Channel positions : Front: L C R, Side: L R, LFE
    Sampling rate : 48.0 KHz
    Bit depth : 24 bits
    Compression mode : Lossy
    Stream size : 994 MiB (13%)
    Title : Xixidoktor
    Language : Russian
    Default : Yes
    Forced : No

    Audio #2
    ID : 3
    Format : DTS
    Format/Info : Digital Theater Systems
    Codec ID : A_DTS
    Duration : 1h 32mn
    Bit rate mode : Constant
    Bit rate : 1 510 Kbps
    Channel(s) : 6 channels
    Channel positions : Front: L C R, Side: L R, LFE
    Sampling rate : 48.0 KHz
    Bit depth : 24 bits
    Compression mode : Lossy
    Stream size : 994 MiB (13%)
    Title : original
    Language : English
    Default : No
    Forced : No

    Text
    ID : 4
    Format : UTF-8
    Codec ID : S_TEXT/UTF8
    Codec ID/Info : UTF-8 Plain Text
    Language : English
    Default : No
    Forced : No
    Скриншоты:


    © Оформление by Ворон
    pb.wtf



  • Скачать Пережитки прошлого через торрент http://pic.kartinco.top/images/6/ordi9.jpg Скачать фильм Пережитки прошлого через торрент бесплантно в хорошем качестве Описание: История девяти незнакомцев оказавшихся в результате цепочки ужасных событий и стихийных бедствий в погребе сельского дома в ... 5.5 10 2
    Торрент: Зарегистрирован [2015-09-04 17:06] · скачан: 13 раз
    Статус: T временная
    Размер: 7.53 GB
    Как cкачать? Как скачать Пережитки прошлого через торрент | qTorrent

    % Раздел Тема Автор DL S | L
    Фильмы 2012 [ 1.37 GB ] Пережитки прошлого / Aftermath [2012 HDRip Любительский [Xixidok] Ворон Скачать
    1 | 0
    T Фильмы с авторской озвучкой [ 1.35 GB ] Пережитки прошлого / Remnants [2012 HDRip Любительский одноголосый "ХиХиДок"] coc900 Скачать
    1 | 0

    28-11-2019 20:33  

    Отключить всю рекламу на сайте

      Дорогой пользователь! Огромная просьба, поблагодарите релизера, оцените раздачу и оставьте свои комментарий, если Вы скачали Пережитки прошлого через торрент бесплатно! Внесите свою лепту в развитие PiratBit!
      Комментировать посты могут только пользователи прошедшие не сложную регистрацию
      Показать сообщения:    

      Пережитки прошлого через торрент
      Скачать бесплатно Пережитки прошлого
      Пережитки прошлого скачать торрент
      Пережитки прошлого смотреть онлайн
      Cкачать фильм Пережитки прошлого бесплатно
      Пережитки прошлого скачать торрент в хорошем качестве
      Пережитки прошлого смотреть онлайн бесплатно в хорошем качестве


      Вы не можете начинать темы
      Вы не можете отвечать на сообщения
      Вы не можете редактировать свои сообщения
      Вы не можете удалять свои сообщения
      Вы не можете голосовать в опросах
      Вы не можете прикреплять файлы к сообщениям
      Вы можете скачивать файлы