Всегда рабочее зеркало без VPN и Proxy просто перед .vidak.icu напиши любое слово или цифру, Пример http://atkf.vidak.icu

MVO

2 сезон

1 сезон

1

1 сезон

iTunes

2 сезон

13

1 сезон

Распродажа

pack

Рекомендуем

Пиратка

30

ВАЖНО

RePack

MK11

RePack

jed

RePack

fifa19

RePack

RDR2

RePack

NEED FOR SPEED™ PAYBACK

Кинопоиск HD

6 сезон

 Острые козырьки 6 сезон

Все сериалы

все сериалы на PB.wtf

RePack

FAR CRY 5

Anonymous, нам критически не хватает 5601 руб. на оплату серверов и переферии за Апрель, помоги нам пожалуйста, вся надежда только на тебя. В благодарность мы отключим тебе всю рекламу на сайте!

×
  
Magnet ссылка

Второй шанс / Danny Collins (Дэн Фогельман / Dan Fogelman) [2014, драма, BDRip-AVC от potroks] DUB pb.wtf

Второй шанс через торрент pb.wtf

Размер: 1.46 GB | Добавлен: 6 лет 8 мес. назад | Торрент скачан:287 раз
Смотреть онлайн Второй шанс | Скачать    Ребята, помогите собрать деньги на оплату серверов!!!

06-09-2015 05:36 Второй шанс Скачать торрент  

Второй шанс / Danny Collins
«Письмо от Джона Леннона могло изменить его жизнь навсегда, но письмо он получил лишь сейчас»
Год выпуска: 2014
Страна: США / Big Indie Pictures, ShivHans Pictures
Жанр: драма
Продолжительность: 01:47:10
Перевод: Дубляж [iTunes]
Субтитры: английские (Full), английские (SDH), английские (SDH-Colored)
Навигация по главам: есть
Режиссер: Дэн Фогельман / Dan Fogelman
В ролях:

Аль Пачино (Danny Collins), Аннетт Бенинг (Mary Sinclair), Дженнифер Гарнер (Samantha Leigh Donnelly), Бобби Каннавале (Tom Donnelly), Кристофер Пламмер (Frank Grubman), Катарина Час (Sophie), Жизелль Эйзенберг (Hope Donnelly), Мелисса Бенойст (Jamie), Джош Пек (Nicky Ernst), Брайан Смит (Judd), Скотт Лоуренс (Dr. Ryan Kurtz), Майкл Патрик МакГилл (Neighbor Steve)
Описание: Когда-то песни Дэнни Коллинза обожал весь мир. Однако уже много лет он ничего не пишет, почивая на лаврах былой славы. Но однажды музыканта находит адресованное ему много лет назад письмо от ...Джона Леннона. И это переворачивает всю его жизнь.

Качество: BDRip-AVC
Формат: MKV
Видео кодек: AVC
Аудио кодек: AC3
Видео: AVC, 960x400 (2.40:1), 1566 kbps, 23,976 fps, 0,170 bit/pixel
Аудио: AC3 / 5.1 / 48 kHz / 384 kbps / 16 bit
Релиз группы:
Автор рипа: potroks

Код:

Общее
Уникальный идентификатор : 233727145305316894565646461702334306146 (0xAFD635F6B9728911800E938586FBD762)
Полное имя : Vtoroy.Shans.2015.RUS.BDRip.x264.-HELLYWOOD.mkv
Формат : Matroska
Версия формата : Version 4 / Version 2
Размер файла : 1,46 Гбайт
Продолжительность : 1 ч. 47 м.
Общий поток : 1951 Кбит/сек
Название фильма : Danny Collins (2015) - HELLYWOOD
Дата кодирования : UTC 2015-09-05 04:11:35
Программа кодирования : mkvmerge v5.9.0 ('On The Loose') built on Dec 15 2012 16:39:58
Библиотека кодирования : libebml v1.3.0 + libmatroska v1.4.0

Видео
Идентификатор : 1
Формат : AVC
Формат/Информация : Advanced Video Codec
Профиль формата : High@L4.1
Параметр CABAC формата : Да
Параметр ReFrames формата : 12 кадров
Идентификатор кодека : V_MPEG4/ISO/AVC
Продолжительность : 1 ч. 47 м.
Битрейт : 1566 Кбит/сек
Ширина : 960 пикселей
Высота : 400 пикселей
Соотношение сторон : 2,40:1
Режим частоты кадров : Постоянный
Частота кадров : 23,976 кадра/сек
Цветовое пространство : YUV
Субдискретизация насыщенности : 4:2:0
Битовая глубина : 8 бит
Тип развёртки : Прогрессивная
Бит/(Пиксели*Кадры) : 0.170
Размер потока : 1,14 Гбайт (78%)
Заголовок : potroks
Библиотека кодирования : x264 core 148 r2597M e86f3a1
Настройки программы : cabac=1 / ref=12 / deblock=1:-2:-2 / analyse=0x3:0x133 / me=umh / subme=11 / psy=1 / psy_rd=1.00:0.10 / mixed_ref=1 / me_range=48 / chroma_me=1 / trellis=2 / 8x8dct=1 / cqm=0 / deadzone=21,11 / fast_pskip=0 / chroma_qp_offset=-3 / threads=10 / lookahead_threads=2 / sliced_threads=0 / nr=0 / decimate=1 / interlaced=0 / bluray_compat=0 / constrained_intra=0 / bframes=13 / b_pyramid=2 / b_adapt=2 / b_bias=0 / direct=3 / weightb=1 / open_gop=0 / weightp=2 / keyint=250 / keyint_min=23 / scenecut=40 / intra_refresh=0 / rc=2pass / mbtree=0 / bitrate=1566 / ratetol=1.0 / qcomp=0.70 / qpmin=0 / qpmax=69 / qpstep=4 / cplxblur=20.0 / qblur=0.5 / ip_ratio=1.40 / pb_ratio=1.30 / aq=1:0.80
Язык : English
Default : Да
Forced : Нет

Аудио
Идентификатор : 2
Формат : AC-3
Формат/Информация : Audio Coding 3
Расширение режима : CM (complete main)
Параметр Endianness формата : Big
Идентификатор кодека : A_AC3
Продолжительность : 1 ч. 47 м.
Вид битрейта : Постоянный
Битрейт : 384 Кбит/сек
Каналы : 6 каналов
Расположение каналов : Front: L C R, Side: L R, LFE
Частота : 48,0 КГц
Метод сжатия : С потерями
Размер потока : 294 Мбайт (20%)
Заголовок : Dub | DD 5.1 @ 384 kbps - iTunes
Язык : Russian
Default : Да
Forced : Нет

Текст #1
Идентификатор : 3
Формат : UTF-8
Идентификатор кодека : S_TEXT/UTF8
Идентификатор кодека/Информация : UTF-8 Plain Text
Заголовок : Full
Язык : English
Default : Нет
Forced : Нет

Текст #2
Идентификатор : 4
Формат : UTF-8
Идентификатор кодека : S_TEXT/UTF8
Идентификатор кодека/Информация : UTF-8 Plain Text
Заголовок : SDH
Язык : English
Default : Нет
Forced : Нет

Текст #3
Идентификатор : 5
Формат : UTF-8
Идентификатор кодека : S_TEXT/UTF8
Идентификатор кодека/Информация : UTF-8 Plain Text
Заголовок : SDH-Cplored
Язык : English
Default : Нет
Forced : Нет

Меню
00:00:00.000 : en:00:00:00.000
00:03:55.944 : en:00:03:55.944
00:11:27.437 : en:00:11:27.437
00:16:10.428 : en:00:16:10.428
00:19:58.656 : en:00:19:58.656
00:24:40.646 : en:00:24:40.646
00:29:53.375 : en:00:29:53.375
00:36:10.335 : en:00:36:10.335
00:40:14.370 : en:00:40:14.370
00:44:05.518 : en:00:44:05.518
00:49:00.813 : en:00:49:00.813
00:55:55.477 : en:00:55:55.477
01:02:47.514 : en:01:02:47.514
01:07:23.498 : en:01:07:23.498
01:14:47.650 : en:01:14:47.650
01:20:12.850 : en:01:20:12.850
01:25:11.773 : en:01:25:11.773
01:30:40.393 : en:01:30:40.393
01:36:00.838 : en:01:36:00.838
01:41:24.829 : en:01:41:24.829

pb.wtf



Скачать Второй шанс через торрент http://i65.fastpic.ru/big/2015/0906/f1/73f7ad7959e76968c8da985165ae67f1.png Скачать, смотреть онлайн Второй шанс бесплантно в хорошем качестве Описание: Когда-то песни Дэнни Коллинза обожал весь мир. Однако уже много лет он ничего не пишет, почивая на лаврах былой славы. Но ... 9.9 10 15
Торрент: Зарегистрирован [2015-09-06 05:36] · скачан: 287 раз
Статус: √ проверено
Размер: 1.46 GB
Как cкачать? Как скачать Второй шанс через торрент | UTorrent

% Раздел Тема Автор DL S | L
Фильмы 2015 [DVDrip, WEB-DLRip, HDrip] [ 2.18 GB ] Второй шанс / Danny Collins [2015 BDRip] Dub + Original Eng + Subs sanekbest1 Скачать
1 | 0

28-11-2019 20:33  

Отключить всю рекламу на сайте

    Дорогой пользователь! Огромная просьба, поблагодарите релизера, оцените раздачу и оставьте свои комментарий, если Вы скачали Второй шанс через торрент бесплатно!
    Комментировать посты могут только пользователи прошедшие не сложную регистрацию
    Показать сообщения:    

    Второй шанс через торрент
    Скачать бесплатно Второй шанс
    Второй шанс скачать торрент
    Второй шанс смотреть онлайн
    Cкачать фильм Второй шанс бесплатно
    Второй шанс скачать торрент в хорошем качестве
    Второй шанс смотреть онлайн бесплатно в хорошем качестве


    Вы не можете начинать темы
    Вы не можете отвечать на сообщения
    Вы не можете редактировать свои сообщения
    Вы не можете удалять свои сообщения
    Вы не можете голосовать в опросах
    Вы не можете прикреплять файлы к сообщениям
    Вы можете скачивать файлы