Ссылка на приватное зеркало нашего сайта всего за 1$. Внимание количество ограничено!!!

2 сезон

iTunes

1 сезон

1

iTunes

iTunes

iTunes

1 сезон

RePack

30

ИГРА 18+

pack

ВАЖНО

!!Акция!!

Alien_RageХит недели

RePack

MK11
pack

Забери бонус

RePack

jed

!!Акция!!

Alien_Rage

RePack

fifa19

RePack

Assassins Creed: Odyssey

RePack

NEED FOR SPEED™ PAYBACK

4 сезон

9 сезон

Бесстыжие 9 сезон

Все сериалы

все сериалы на PB.wtf

RePack

FAR CRY 5
  

Упоротый Лис (Андрей Белов) [2015 г., Короткометражка, комедия, WEBRip 1080p, Оригинал] pb.wtf

Упоротый Лис через торрент pb.wtf

Размер: 327 MB | Добавлен: 5 лет 1 мес. назад | Торрент скачан:121 раз
Скачать  

06-09-2015 08:38 Упоротый Лис Скачать торрент  

Упоротый Лис
Год выпуска: 2015
Страна: Россия
Жанр: Короткометражка, комедия
Продолжительность: 00:03:31
Перевод: Оригинал

Режиссер: Андрей Белов

В ролях: Дмитрий Фишер, Анатолий Федоров, Наталья Фишер

Описание: Он упорот, хитер и находчив, но есть одна серьёзная проблема его потихоньку начинает отпускать...

Качество:WEBRip 1080p
Формат: MKV
Видео кодек: H.264
Аудио кодек: AC3
Видео: MKV, 1920x1080, 12437 kbps, 60 fps, 0,101 bpp
Аудио#1: AC3, 2 ch, 192 Кбит/с, 48 Khz
скриншот   скриншот   скриншот   скриншот  

General
Unique ID : 242325519584010384275298661187367660696 (0xB64E328BCB8C69EAA6C9CD8287AAEC98)
Complete name : E:\торент\uporotii_fox.mkv
Format : Matroska
Format version : Version 4 / Version 2
File size : 327 MiB
Duration : 3mn 31s
Overall bit rate mode : Variable
Overall bit rate : 13.0 Mbps
Encoded date : UTC 2015-09-05 16:36:05
Writing application : mkvmerge v7.0.0 ('Where We Going') 64bit built on Jun 9 2014 15:16:27
Writing library : libebml v1.3.0 + libmatroska v1.4.1
DURATION : 00:03:31.360000000
NUMBER_OF_FRAMES : 6605
NUMBER_OF_BYTES : 5072640
_STATISTICS_WRITING_APP : mkvmerge v7.0.0 ('Where We Going') 64bit built on Jun 9 2014 15:16:27
_STATISTICS_WRITING_DATE_UTC : 2015-09-05 16:36:05
_STATISTICS_TAGS : BPS DURATION NUMBER_OF_FRAMES NUMBER_OF_BYTES

Video
ID : 1
Format : AVC
Format/Info : Advanced Video Codec
Format profile : High@L4.2
Format settings, CABAC : Yes
Format settings, ReFrames : 2 frames
Codec ID : V_MPEG4/ISO/AVC
Duration : 3mn 31s
Bit rate mode : Variable
Bit rate : 12.5 Mbps
Maximum bit rate : 26.0 Mbps
Width : 1 920 pixels
Height : 1 080 pixels
Display aspect ratio : 16:9
Frame rate mode : Constant
Frame rate : 60.000 fps
Original frame rate : 59.940 fps
Color space : YUV
Chroma subsampling : 4:2:0
Bit depth : 8 bits
Scan type : Progressive
Bits/(Pixel*Frame) : 0.101
Stream size : 316 MiB (97%)
Default : Yes
Forced : No

Audio
ID : 2
Format : AC-3
Format/Info : Audio Coding 3
Mode extension : CM (complete main)
Format settings, Endianness : Big
Codec ID : A_AC3
Duration : 3mn 31s
Bit rate mode : Constant
Bit rate : 192 Kbps
Channel(s) : 2 channels
Channel positions : Front: L R
Sampling rate : 48.0 KHz
Compression mode : Lossy
Delay relative to video : -17ms
Stream size : 4.84 MiB (1%)
Default : Yes
Forced : No

pb.wtf



Скачать Упоротый Лис через торрент http://pic1.kartinco.top/images/10/71to8.jpg Скачать фильм Упоротый Лис через торрент бесплантно в хорошем качестве Описание: Он упорот, хитер и находчив, но есть одна серьёзная проблема его потихоньку начинает ... 8.7 10 7
Торрент: Зарегистрирован [2015-09-06 08:38] · скачан: 121 раз
Статус: √ проверено
Размер: 327 MB
Как cкачать? Как скачать Упоротый Лис через торрент | qTorrent

28-11-2019 20:33  

Отключить всю рекламу на сайте

06-09-2015 09:25 Упоротый Лис Скачать торрент  

WTF?pb.wtf



06-09-2015 12:01 Упоротый Лис Скачать торрент  

Мульт идёт без звука в KMPlayer (pb.wtf



06-09-2015 18:10 Упоротый Лис Скачать торрент  

всё разобрался, теперь всё ровноpb.wtf



    Дорогой пользователь! Огромная просьба, поблагодарите релизера, оцените раздачу и оставьте свои комментарий, если Вы скачали Упоротый Лис через торрент бесплатно! Внесите свою лепту в развитие PiratBit!
    Комментировать посты могут только пользователи прошедшие не сложную регистрацию
    Показать сообщения:    

    Упоротый Лис через торрент
    Скачать бесплатно Упоротый Лис
    Упоротый Лис скачать торрент
    Упоротый Лис смотреть онлайн
    Cкачать фильм Упоротый Лис бесплатно
    Упоротый Лис скачать торрент в хорошем качестве
    Упоротый Лис смотреть онлайн бесплатно в хорошем качестве


    Вы не можете начинать темы
    Вы не можете отвечать на сообщения
    Вы не можете редактировать свои сообщения
    Вы не можете удалять свои сообщения
    Вы не можете голосовать в опросах
    Вы не можете прикреплять файлы к сообщениям
    Вы можете скачивать файлы