2 сезон

iTunes

1 сезон

1

iTunes

iTunes

iTunes

1 сезон

RePack

30

ИГРА 18+

pack

ВАЖНО

!!Акция!!

Alien_RageХит недели

RePack

MK11
pack

Забери бонус

RePack

jed

!!Акция!!

Alien_Rage

RePack

fifa19

RePack

Assassins Creed: Odyssey

RePack

NEED FOR SPEED™ PAYBACK

4 сезон

9 сезон

Бесстыжие 9 сезон

Все сериалы

все сериалы на PB.wtf

RePack

FAR CRY 5
  

Сын Бэтмена / Son of Batman (Этан Сполдинг / Ethan Spaulding) [2014, мультфильм, BDRip] 2 x MVO + Original Eng + sub (rus, eng) pb.wtf

Сын Бэтмена через торрент pb.wtf

Размер: 1.69 GB | Добавлен: 4 года 8 мес. назад | Торрент скачан:64 раза
Скачать  

06-09-2015 13:49 Сын Бэтмена Скачать торрент  


Сын Бэтмена / Son of Batman
««Vengeance runs in the blood»»

ИНФОРМАЦИЯ:
Год выпуска:2014
Страна: США
Жанр: мультфильм, фэнтези, боевик, драма, криминал, детектив, приключения
Продолжительность: 01:14:10
Перевод: Любительский (Многоголосый закадровый) SkyeFilmTV
Перевод: Любительский (Многоголосый закадровый) ZM-SHOW
Русские субтитры: есть
Режиссер: Этан Сполдинг

В Ролях:


Джейсон О’Мара (Batman / Bruce Wayne, озвучка), Стюарт Аллан (Robin / Damian Wayne, озвучка), Томас Гибсон (Deathstroke, озвучка), Морена Баккарин (Talia al Ghul, озвучка), Ди Брэдли Бейкер (Man-Bat / Joker / Man-Bat Commando, озвучка), Ксандер Беркли (Dr. Kirk Langstrom, озвучка), Джанкарло Эспозито (Ra's al Ghul, озвучка), Шон Маэр (Nightwing / Dick Grayson, озвучка), Дэвид МакКаллум (Alfred Pennyworth, озвучка), Дайан Мишель (Francine Langstrom / Call Girl #2, озвучка), Андреа Романо (Suit #2, озвучка), Фред Татаскьор (Killer Croc / Dusan al Ghul, озвучка)

Описание:
Бэтмен узнает, что он имеет наследника, подростка-сына, тайно посланного террористической группой Лига Убийц.

  • Мировая премьера:6 мая 2014

    ТЕХ.ДАННЫЕ:
    Качество: BDRip
    Формат: AVI

    Видео: 704x400 (1.76:1), 23,976 fps, XviD 66 ~1 875 kbps avg, 0.28 bit/pixel
    Аудио: 48 kHz, AC3 Dolby Digital, 2 ch, ~192 kbps avg |SkyeFilmTV|
    Аудио: 48 kHz, AC3 Dolby Digital, 3/2 (L,C,R,l,r) + LFE ch, ~448 kbps avg |ENG|
    Аудио: 48 kHz, AC3 Dolby Digital, 3/2 (L,C,R,l,r) + LFE ch, ~448 kbps avg |ZM-SHOW| отдельно
    Субтитры: Russian, English [srt] отдельно


    General
    Complete name : D:\Торенты\Syn.Betmena.2014.P.HDRip.avi
    Format : AVI
    Format/Info : Audio Video Interleave
    File size : 1.36 GiB
    Duration : 1h 14mn
    Overall bit rate : 2 630 Kbps
    Writing application : VirtualDubMod 1.5.10.2 (build 2540/release)
    Writing library : VirtualDubMod build 2540/release

    Video
    ID : 0
    Format : MPEG-4 Visual
    Format profile : Advanced Simple@L5
    Format settings, BVOP : 2
    Format settings, QPel : No
    Format settings, GMC : No warppoints
    Format settings, Matrix : Default (MPEG)
    Codec ID : XVID
    Codec ID/Hint : XviD
    Duration : 1h 14mn
    Bit rate : 1 875 Kbps
    Width : 720 pixels
    Height : 400 pixels
    Display aspect ratio : 16:9
    Frame rate : 23.976 fps
    Color space : YUV
    Chroma subsampling : 4:2:0
    Bit depth : 8 bits
    Scan type : Progressive
    Compression mode : Lossy
    Bits/(Pixel*Frame) : 0.272
    Stream size : 995 MiB (71%)
    Writing library : XviD 1.2.1 (UTC 2008-12-04)

    Audio #1
    ID : 1
    Format : AC-3
    Format/Info : Audio Coding 3
    Mode extension : CM (complete main)
    Codec ID : 2000
    Duration : 1h 14mn
    Bit rate mode : Constant
    Bit rate : 192 Kbps
    Channel(s) : 2 channels
    Channel positions : Front: L R
    Sampling rate : 48.0 KHz
    Bit depth : 16 bits
    Compression mode : Lossy
    Stream size : 102 MiB (7%)
    Alignment : Split accross interleaves

    Audio #2
    ID : 2
    Format : AC-3
    Format/Info : Audio Coding 3
    Mode extension : CM (complete main)
    Codec ID : 2000
    Duration : 1h 14mn
    Bit rate mode : Constant
    Bit rate : 448 Kbps
    Channel(s) : 6 channels
    Channel positions : Front: L C R, Side: L R, LFE
    Sampling rate : 48.0 KHz
    Bit depth : 16 bits
    Compression mode : Lossy
    Stream size : 238 MiB (17%)
    Alignment : Split accross interleaves
    Скриншоты:


    © Оформление by Ворон
    pb.wtf



  • Скачать Сын Бэтмена через торрент http://pic.kartinco.top/images/6/ordi9.jpg Скачать фильм Сын Бэтмена через торрент бесплантно в хорошем качестве Описание: Бэтмен узнает, что он имеет наследника, подростка-сына, тайно посланного террористической группой Лига Убийц. Мировая премьера:6 ... 10 10 5
    Торрент: Зарегистрирован [2016-02-29 05:05] · скачан: 64 раз
    Статус: # сомнительно
    Размер: 1.69 GB
    Как cкачать? Как скачать Сын Бэтмена через торрент | qTorrent

    % Раздел Тема Автор DL S | L
    T Зарубежные Мультфильмы (BDRip 1080p, 720p, Blu-ray, BD-Remux) [ 4.47 GB ] Сын Бэтмена / Son of Batman [2014 мультфильм BDRip 1080p Ворон Скачать
    1 | 0
    Иностранные мультфильмы [ 1.33 GB ] Сын Бэтмена / Son of Batman [2014 Мультфильм BDRip-AVC] MVO potroks Скачать
    1 | 0
    Иностранные мультфильмы [ 699 MB ] Сын Бэтмена / Son of Batman [2014 мультфильм BDRip Любительский многоголосый + Субтитры] makarevich Скачать
    1 | 0
    Фильмы без перевода [ 699 MB ] Сын Бэтмена / Son of Batman [2014 мультфильм BDRip Субтитры + Оригинал] makarevich Скачать
    1 | 0

    28-11-2019 20:33  

    Отключить всю рекламу на сайте

      Дорогой пользователь! Огромная просьба, поблагодарите релизера, оцените раздачу и оставьте свои комментарий, если Вы скачали Сын Бэтмена через торрент бесплатно! Внесите свою лепту в развитие PiratBit!
      Комментировать посты могут только пользователи прошедшие не сложную регистрацию
      Показать сообщения:    

      Сын Бэтмена через торрент
      Скачать бесплатно Сын Бэтмена
      Сын Бэтмена скачать торрент
      Сын Бэтмена смотреть онлайн
      Cкачать фильм Сын Бэтмена бесплатно
      Сын Бэтмена скачать торрент в хорошем качестве
      Сын Бэтмена смотреть онлайн бесплатно в хорошем качестве


      Вы не можете начинать темы
      Вы не можете отвечать на сообщения
      Вы не можете редактировать свои сообщения
      Вы не можете удалять свои сообщения
      Вы не можете голосовать в опросах
      Вы не можете прикреплять файлы к сообщениям
      Вы можете скачивать файлы