Ссылка на приватное зеркало всего за 1$. Внимание количество ограничено!!!

iTunes

iTunes

iTunes

1

iTunes

iTunes

iTunes

iTunes

iTunes

30
pack

$ от Little Big

ВАЖНО

!!Акция!!

Alien_RageХит недели

RePack

Resident Evil 21

ИГРА 18+

pack

RePack

jed

!!Акция!!

Alien_Rage

RePack

fifa19

RePack

Assassins Creed: Odyssey

RePack

NEED FOR SPEED™ PAYBACK

4 сезон

9 сезон

Бесстыжие 9 сезон

Все сериалы

все сериалы на PB.wtf

RePack

FAR CRY 5
  

Z – значит Захария / Z for Zachariah (Крэйг Зобел) [2015, фантастика, драма, триллер, WEB-DL 720p, Любительский (одноголосый) [Xixidok] pb.wtf

Z – значит Захария через торрент pb.wtf

Размер: 3.17 GB | Добавлен: 4 года 10 мес. назад | Торрент скачан:221 раз
Скачать  

07-09-2015 14:37 Z – значит Захария Скачать торрент  


Z – значит Захария / Z for Zachariah
««After the end of the world she thought she was alone. She was wrong»»

ИНФОРМАЦИЯ:
Год выпуска:2015
Страна: Исландия, США
Жанр: фантастика, драма, триллер
Продолжительность: 01:37:55
Перевод: Любительский (одноголосый) [Xixidok]
Субтитры: английские,
Режиссер: Крэйг Зобел

В Ролях:


Чиветель Эджиофор (Loomis), Марго Робби (Ann Burden), Крис Пайн (Caleb)

Описание:
В разрушенном ядерной войной мире чудом смогла выжить 16-летняя Энн. Она встречает взрослого ученого по имени Люмис, который уже потерял надежду найти свою семью. Энн взрослеет, между ней и Люмисом рождаются чувства. Ситуация усложняется, когда появляется третий выживший - молодой парень Калеб. Начинается война за последнюю женщину на земле...

  • Мировая премьера:24 января 2015

    ТЕХ.ДАННЫЕ:
    Качество: WEB-DL 720p
    Формат: MKV
    Видео кодек: AVC
    Аудио кодек: AC3, MP3
    Видео: AVC, 1280x536 (2.40:1), 3966 kbps, 23,976 fps, 0,241 bpp
    Аудио №1: русский / MP3 / 2.0 / 44 kHz / 192 kbps / ||
    Аудио №2: английский / AC3 / 5.1 / 48 kHz / 384 kbps / 16 bit
    Навигация по главам: есть


    General
    Unique ID : 239130727187572126979654583839047660151 (0xB3E6E71EA542DC5FBFECB3A63C51B277)
    Complete name : D:\Торенты\Zahariya.2015.L1.WEBDL.720p.mkv
    Format : Matroska
    Format version : Version 4 / Version 2
    File size : 3.17 GiB
    Duration : 1h 37mn
    Overall bit rate : 4 635 Kbps
    Encoded date : UTC 2015-09-07 11:30:46
    Writing application : mkvmerge v6.9.1 ('Blue Panther') 64bit built on Apr 18 2014 18:23:38
    Writing library : libebml v1.3.0 + libmatroska v1.4.1

    Video
    ID : 1
    Format : AVC
    Format/Info : Advanced Video Codec
    Format profile : Main@L3.1
    Format settings, CABAC : No
    Format settings, ReFrames : 2 frames
    Codec ID : V_MPEG4/ISO/AVC
    Duration : 1h 37mn
    Bit rate : 3 967 Kbps
    Width : 1 280 pixels
    Height : 536 pixels
    Display aspect ratio : 2.40:1
    Frame rate : 23.976 fps
    Color space : YUV
    Chroma subsampling : 4:2:0
    Bit depth : 8 bits
    Scan type : Progressive
    Bits/(Pixel*Frame) : 0.241
    Stream size : 2.71 GiB (86%)
    Language : English
    Default : Yes
    Forced : No
    Color primaries : BT.709-5, BT.1361, IEC 61966-2-4, SMPTE RP177
    Transfer characteristics : BT.709-5, BT.1361
    Matrix coefficients : BT.709-5, BT.1361, IEC 61966-2-4 709, SMPTE RP177

    Audio #1
    ID : 2
    Format : MPEG Audio
    Format version : Version 1
    Format profile : Layer 3
    Codec ID : A_MPEG/L3
    Codec ID/Hint : MP3
    Duration : 1h 37mn
    Bit rate mode : Constant
    Bit rate : 192 Kbps
    Channel(s) : 2 channels
    Sampling rate : 44.1 KHz
    Compression mode : Lossy
    Stream size : 134 MiB (4%)
    Language : Russian
    Default : Yes
    Forced : No

    Audio #2
    ID : 3
    Format : AC-3
    Format/Info : Audio Coding 3
    Mode extension : CM (complete main)
    Codec ID : A_AC3
    Duration : 1h 37mn
    Bit rate mode : Constant
    Bit rate : 384 Kbps
    Channel(s) : 6 channels
    Channel positions : Front: L C R, Side: L R, LFE
    Sampling rate : 48.0 KHz
    Bit depth : 16 bits
    Compression mode : Lossy
    Stream size : 269 MiB (8%)
    Language : English
    Default : No
    Forced : No

    Text
    ID : 4
    Format : UTF-8
    Codec ID : S_TEXT/UTF8
    Codec ID/Info : UTF-8 Plain Text
    Language : English
    Default : No
    Forced : No

    Menu
    00:00:00.000 : en:1
    00:10:22.000 : en:2
    00:20:25.000 : en:3
    00:30:21.000 : en:4
    00:40:41.000 : en:5
    00:47:36.000 : en:6
    00:56:31.000 : en:7
    01:06:29.000 : en:8
    01:16:57.000 : en:9
    01:22:29.000 : en:10
    01:30:45.000 : en:11
    Скриншоты:


    © Оформление by Ворон
    pb.wtf



  • Скачать Z – значит Захария через торрент http://pic.kartinco.top/images/6/ordi9.jpg Скачать фильм Z – значит Захария через торрент бесплантно в хорошем качестве Описание: В разрушенном ядерной войной мире чудом смогла выжить 16-летняя Энн. Она встречает взрослого ученого по имени Люмис, который уже ... 8.2 10 5
    Торрент: Зарегистрирован [2015-09-07 14:37] · скачан: 221 раз
    Статус: T временная
    Размер: 3.17 GB
    Как cкачать? Как скачать Z – значит Захария через торрент | qTorrent

    % Раздел Тема Автор DL S | L
    Фильмы (Blu-ray, BD-Remux, HDDVD) [ 30.67 GB ] Z – значит Захария / Z for Zachariah [2015 BDRemux 1080p от NovaLan] VO+DVO Ворон Скачать
    1 | 0
    T Фильмы 2015 (Звук TS, Cam, VO, DVO) [ 1.29 GB ] Z – значит Захария / Z for Zachariah [2015 HDRip Любительский [Xixidok] Ворон Скачать
    1 | 0
    Фильмы без перевода [ 3.04 GB ] Z – значит Захария / Z for Zachariah [2015 WEB-DL 720p] [ENG] killermax2013 Скачать
    1 | 0

    28-11-2019 20:33  

    Отключить всю рекламу на сайте

    07-09-2015 16:10 Z – значит Захария Скачать торрент  

    блин уже обрадовался, если бы не хихидок, как пучков(гоблин) уже выдыхся лет 5 назадpb.wtf



    07-09-2015 17:32 Z – значит Захария Скачать торрент  

    хотя бы русские сабы, то можно.pb.wtf



      Дорогой пользователь! Огромная просьба, поблагодарите релизера, оцените раздачу и оставьте свои комментарий, если Вы скачали Z – значит Захария через торрент бесплатно! Внесите свою лепту в развитие PiratBit!
      Комментировать посты могут только пользователи прошедшие не сложную регистрацию
      Показать сообщения:    

      Z – значит Захария через торрент
      Скачать бесплатно Z – значит Захария
      Z – значит Захария скачать торрент
      Z – значит Захария смотреть онлайн
      Cкачать фильм Z – значит Захария бесплатно
      Z – значит Захария скачать торрент в хорошем качестве
      Z – значит Захария смотреть онлайн бесплатно в хорошем качестве


      Вы не можете начинать темы
      Вы не можете отвечать на сообщения
      Вы не можете редактировать свои сообщения
      Вы не можете удалять свои сообщения
      Вы не можете голосовать в опросах
      Вы не можете прикреплять файлы к сообщениям
      Вы можете скачивать файлы