Ссылка на приватное зеркало нашего сайта всего за 1$. Внимание количество ограничено!!!

2 сезон

iTunes

1 сезон

1

2 сезон

2 сезон

iTunes

1 сезон

RePack

30

Ultimate

ВАЖНО

ИГРА 18+

pack

RePack

MK11
pack

Забери бонус

RePack

jed

!!Акция!!

Alien_Rage

RePack

fifa19

RePack

Assassins Creed: Odyssey

RePack

NEED FOR SPEED™ PAYBACK

4 сезон

9 сезон

Бесстыжие 9 сезон

Все сериалы

все сериалы на PB.wtf

RePack

FAR CRY 5
  

Ответный удар: Наследие / Strike Back: Legacy / Cезон: 5 / Серии 1-10 из 10 (Дэниэл Персивал, Пол Вильшурст, Билл Иглз) [2015 г., боевик, триллер, драма, HDTVRip] MVO (BaibaKo) pb.wtf

Ответный удар: Наследие через торрент pb.wtf

Размер: 5.79 GB | Добавлен: 5 лет 2 мес. назад | Торрент скачан:174 раза
Скачать  

07-09-2015 14:43 Ответный удар: Наследие Скачать торрент  

Ответный удар: Наследие / Strike Back: LegacyГод выпуска: 2015
Страна: Великобритания
Жанр: боевик, триллер, драма
Продолжительность: 10 x ~ 00:44:00
Перевод: Профессиональный многоголосный (BaibaKo)

Режиссер: Дэниэл Персивал, Пол Вильшурст, Билл Иглз

http://www.imdb.com/title/tt1492179/



В ролях: Филип Уинчестер, Салливан Степлтон, Мишель Лукес, Рашан Стоун, Рона Митра, Аманда Милинг, Лайам Гэрриган, Робсон Грин, Джими Мистри, Милона Джексон

Описание: Джон Портер накануне вторжения в Ирак в 2003 году руководит специальным подразделением в операции по спасению заложника в центре Басры. Однако, результатом операции становится катастрофический поворот событий для него и Коллинсона. У Портера, страдающего чувством вины, спустя 7 лет появляется возможность вернуться в Ирак и попытаться все исправить. Спустя годы, Портер и Коллинсон столкнутся снова.

Качество: HDTVRip
Формат: AVI
Видео кодек: XviD
Аудио кодек: MP3
Видео: 720x400 (16:9), 25 fps ~ 1100-1500 Kbps
Аудио#1: 48 KHz 2 ch ~ 192 Kb/s (русский)
Аудио#2: 48 KHz 2 ch ~ 192 Kb/s (английский)
Релиз от:
Общее
Полное имя : Q:\TorF\Ответный удар (сезон 5)\Strike.Back.s05e01.HDTVRip.XviD.Rus.Eng.BaibaKo.avi
Формат : AVI
Формат/Информация : Audio Video Interleave
Размер файла : 609 Мбайт
Продолжительность : 44 м.
Общий поток : 1901 Кбит/сек
Программа кодирования : VirtualDubMod 1.5.10.2 (build 2540/release)
Библиотека кодирования : VirtualDubMod build 2540/release

Видео
Идентификатор : 0
Формат : MPEG-4 Visual
Профиль формата : Advanced Simple@L5
Параметр BVOP формата : 2
Параметр QPel формата : Нет
Параметр GMC формата : Без точки перехода
Параметр матрицы формата : Default (H.263)
Идентификатор кодека : XVID
Идентификатор кодека/Подсказка : XviD
Продолжительность : 44 м.
Битрейт : 1502 Кбит/сек
Ширина : 720 пикселей
Высота : 400 пикселей
Соотношение сторон : 16:9
Частота кадров : 25,000 кадров/сек
Цветовое пространство : YUV
Субдискретизация насыщенности : 4:2:0
Битовая глубина : 8 бит
Тип развёртки : Прогрессивная
Метод сжатия : С потерями
Бит/(Пиксели*Кадры) : 0.209
Размер потока : 482 Мбайт (79%)
Библиотека кодирования : XviD 1.2.1 (UTC 2008-12-04)

Аудио #1
Идентификатор : 1
Формат : MPEG Audio
Версия формата : Version 1
Профиль формата : Layer 3
Режим : Joint stereo
Расширение режима : MS Stereo
Идентификатор кодека : 55
Идентификатор кодека/Подсказка : MP3
Продолжительность : 44 м.
Вид битрейта : Постоянный
Битрейт : 192 Кбит/сек
Каналы : 2 канала
Частота : 48,0 КГц
Метод сжатия : С потерями
Размер потока : 61,5 Мбайт (10%)
Выравнивание : Соединение по промежуткам
Продолжительность промежутка : 40 мс. (1,00 видеокадр)
Время предзагрузки промежутка : 504 мс.

Аудио #2
Идентификатор : 2
Формат : MPEG Audio
Версия формата : Version 1
Профиль формата : Layer 3
Режим : Joint stereo
Расширение режима : MS Stereo
Идентификатор кодека : 55
Идентификатор кодека/Подсказка : MP3
Продолжительность : 44 м.
Вид битрейта : Постоянный
Битрейт : 192 Кбит/сек
Каналы : 2 канала
Частота : 48,0 КГц
Метод сжатия : С потерями
Размер потока : 61,5 Мбайт (10%)
Выравнивание : Соединение по промежуткам
Продолжительность промежутка : 40 мс. (1,00 видеокадр)
Время предзагрузки промежутка : 504 мс.


Ответный удар скачать торрент


pb.wtf



Скачать Ответный удар: Наследие через торрент http://pic.kartinco.top/images/11/12uqc.jpg Скачать фильм Ответный удар: Наследие через торрент бесплантно в хорошем качестве Описание: Джон Портер накануне вторжения в Ирак в 2003 году руководит специальным подразделением в операции по спасению заложника в центре ... 10 10 2
Info! Золотая раздача, скачанное не засчитывается.
Торрент: Зарегистрирован [2015-09-07 14:43] · скачан: 174 раз
Статус: √ проверено
Размер: 5.79 GB
Как cкачать? Как скачать Ответный удар: Наследие через торрент | qTorrent

% Раздел Тема Автор DL S | L
Зарубежные сериалы [ 15.49 GB ] Ответный удар: Наследие / Strike Back: Legacy / Cезон: 5 / Серии 1-10 из 10 [2015 HDTVRip 720p] MVO 10oN Скачать
1 | 0

28-11-2019 20:33  

Отключить всю рекламу на сайте

07-09-2015 20:47 Ответный удар: Наследие Скачать торрент  

Огромное спасибо! Смотрю сериал с самого начала. Очень понравился, хотя есть сюжеты предсказуемые, но все же...pb.wtf



    Дорогой пользователь! Огромная просьба, поблагодарите релизера, оцените раздачу и оставьте свои комментарий, если Вы скачали Ответный удар: Наследие через торрент бесплатно! Внесите свою лепту в развитие PiratBit!
    Комментировать посты могут только пользователи прошедшие не сложную регистрацию
    Показать сообщения:    

    Ответный удар: Наследие через торрент
    Скачать бесплатно Ответный удар: Наследие
    Ответный удар: Наследие скачать торрент
    Ответный удар: Наследие смотреть онлайн
    Cкачать фильм Ответный удар: Наследие бесплатно
    Ответный удар: Наследие скачать торрент в хорошем качестве
    Ответный удар: Наследие смотреть онлайн бесплатно в хорошем качестве


    Вы не можете начинать темы
    Вы не можете отвечать на сообщения
    Вы не можете редактировать свои сообщения
    Вы не можете удалять свои сообщения
    Вы не можете голосовать в опросах
    Вы не можете прикреплять файлы к сообщениям
    Вы можете скачивать файлы