Ссылка на приватное зеркало нашего сайта всего за 1$. Внимание количество ограничено!!!

2 сезон

iTunes

1 сезон

1

2 сезон

2 сезон

iTunes

1 сезон

RePack

30

Новинка

ВАЖНО

ИГРА 18+

pack

RePack

MK11
pack

Забери бонус

RePack

jed

!!Акция!!

Alien_Rage

RePack

fifa19

RePack

Assassins Creed: Odyssey

RePack

NEED FOR SPEED™ PAYBACK

4 сезон

9 сезон

Бесстыжие 9 сезон

Все сериалы

все сериалы на PB.wtf

RePack

FAR CRY 5
  

Сосны / Уэйуорд Пайнс / Wayward Pines / Сезон: 1 / Серии: 1-10 из 10 (Зал Батманглидж, Тим Хантер, Нимрод Антал) [ 2015, США , фантастика, триллер, драма, HDTV 1080p] DVO [Кубик в кубе] + Original pb.wtf

Сосны через торрент pb.wtf

Размер: 25.94 GB | Добавлен: 5 лет 2 мес. назад | Торрент скачан:47 раз
Скачать  

07-09-2015 17:57 Сосны Скачать торрент  

Сосны / Wayward Pines

Год выпуска: 2015
Страна: США
Жанр: фантастика, триллер, драма, детектив
Продолжительность: 00:43:58
Перевод:
|Профессиональный (двухголосый, закадровый) Кубик в Кубе|

Режиссер: Зал Батманглидж / Zal Batmanglij, Тим Хантер / Tim Hunter, Нимрод Антал / Nimród Antal
В ролях: Мэтт Диллон (Ethan Burke), Карла Гуджино (Kate Hewson), Шаннин Соссамон (Theresa Burke), Тоби Джонс (Dr. Jenkins), Чарли Тахэн (Ben Burke), Мелисса Лео (Nurse Pam), Рид Даймонд (Harold Balinger), Хоуп Дэвис (Megan Fisher), Шиван Фэллон (Arlene Moran), Сара Джеффри (Amy), Чад Кровчук (Tim Bell), Тим Гриффин (Adam Hassler)
Описание:
Агент секретной службы Итан Берк приезжает в пасторальный городок Уэйуорд Пайнс в Айдахо, чтобы найти двух пропавших фэбээровцев. Но расследование вместо ответов приносит лишь новые вопросы. Что же происходит в Уэйуорд Пайнс?

Рейтинг

Качество: HDTV 1080p Источник: Wayward.Pines.S01.1080p.HDTV.X264-DIMENSION
Формат: MKV
Видео кодек: AVC
Аудио кодек: AC3
Видео: AVC, 1920x1080 (16:9), 23.976 fps, 7 748 Kbps (0.156 bit/pixel)
Аудио №1: русский / AC3 / 5.1 / 48 kHz / 640 kbps / 16 bit ||
Аудио №2: английский / AC3 / 5.1 / 48 kHz / 640 kbps / 16 bit
Релиз:
Работа со звуком: messafan
Оформление: Messa-fan

Код:

General
Unique ID                                : 236932503574087780640197902294342750216 (0xB23F8A53EE88596AB93206D90308D008)
Complete name                            : E:\Uploads\CasStudio\Wayward.Pines.s01.1080p.CasStudio.TV\Wayward.Pines.s01e01.1080p.HDTV.CasStudio.TV.mkv
Format                                   : Matroska
Format version                           : Version 4 / Version 2
File size                                : 2.83 GiB
Duration                                 : 43mn 58s
Overall bit rate                         : 9 211 Kbps
Movie name                               : Wayward Pines s01e01 (Where Paradise Is Home) - release by messafan for CasStudio.tv
Encoded date                             : UTC 2015-05-15 08:39:52
Writing application                      : mkvmerge v6.7.0 ('Back to the Ground') 64bit built on Jan  8 2014 15:10:52
Writing library                          : libebml v1.3.0 + libmatroska v1.4.1

Video
ID                                       : 1
Format                                   : AVC
Format/Info                              : Advanced Video Codec
Format profile                           : High@L4.1
Format settings, CABAC                   : Yes
Format settings, ReFrames                : 4 frames
Codec ID                                 : V_MPEG4/ISO/AVC
Duration                                 : 43mn 58s
Bit rate                                 : 7 748 Kbps
Width                                    : 1 920 pixels
Height                                   : 1 080 pixels
Display aspect ratio                     : 16:9
Frame rate mode                          : Constant
Frame rate                               : 23.976 fps
Color space                              : YUV
Chroma subsampling                       : 4:2:0
Bit depth                                : 8 bits
Scan type                                : Progressive
Bits/(Pixel*Frame)                       : 0.156
Stream size                              : 2.38 GiB (84%)
Title                                    : Wayward.Pines.S01E01.1080p.HDTV.X264-DIMENSION
Writing library                          : x264 core 146 r2538 121396c
Encoding settings                        : cabac=1 / ref=4 / deblock=1:-2:-2 / analyse=0x3:0x133 / me=umh / subme=10 / psy=1 / psy_rd=1.00:0.00 / mixed_ref=1 / me_range=32 / chroma_me=1 / trellis=2 / 8x8dct=1 / cqm=0 / deadzone=21,11 / fast_pskip=1 / chroma_qp_offset=-2 / threads=18 / lookahead_threads=2 / sliced_threads=0 / nr=0 / decimate=1 / interlaced=0 / bluray_compat=0 / constrained_intra=0 / bframes=5 / b_pyramid=2 / b_adapt=2 / b_bias=0 / direct=3 / weightb=1 / open_gop=0 / weightp=2 / keyint=250 / keyint_min=23 / scenecut=40 / intra_refresh=0 / rc_lookahead=60 / rc=crf / mbtree=1 / crf=17.0 / qcomp=0.60 / qpmin=0 / qpmax=69 / qpstep=4 / ip_ratio=1.40 / aq=1:1.00
Language                                 : English
Default                                  : Yes
Forced                                   : No
Color range                              : Limited
Matrix coefficients                      : BT.709

Audio #1
ID                                       : 2
Format                                   : AC-3
Format/Info                              : Audio Coding 3
Mode extension                           : CM (complete main)
Format settings, Endianness              : Big
Codec ID                                 : A_AC3
Duration                                 : 43mn 58s
Bit rate mode                            : Constant
Bit rate                                 : 640 Kbps
Channel(s)                               : 6 channels
Channel positions                        : Front: L C R, Side: L R, LFE
Sampling rate                            : 48.0 KHz
Bit depth                                : 16 bits
Compression mode                         : Lossy
Stream size                              : 201 MiB (7%)
Title                                    : KvK 5.1 DD5.1 @ 640kbps
Language                                 : Russian
Default                                  : Yes
Forced                                   : No

Audio #2
ID                                       : 3
Format                                   : AC-3
Format/Info                              : Audio Coding 3
Mode extension                           : CM (complete main)
Format settings, Endianness              : Big
Codec ID                                 : A_AC3
Duration                                 : 43mn 58s
Bit rate mode                            : Constant
Bit rate                                 : 640 Kbps
Channel(s)                               : 6 channels
Channel positions                        : Front: L C R, Side: L R, LFE
Sampling rate                            : 48.0 KHz
Bit depth                                : 16 bits
Compression mode                         : Lossy
Stream size                              : 201 MiB (7%)
Title                                    : English DD5.1 @ 640kbps
Language                                 : English
Default                                  : No
Forced                                   : No


  • Экранизация романа Блейка Крауча «Сосны».
  • В 3-й серии Кейт ставит на плиту чайник, чтобы приготовить для мужа чай с молоком и свисток на чайнике не закрыт. Однако когда Кейт начинает активно спорить с Итаном - чайник закипает и свистит, и после того как она снимает чайник с плиты, свисток на нем закрыт.
  • pb.wtf



    Скачать Сосны через торрент http://i67.fastpic.ru/big/2015/0907/68/32ad64ef7a2cc7645b96d0f898a6d768.jpg Скачать фильм Сосны через торрент бесплантно в хорошем качестве Описание: Агент секретной службы Итан Берк приезжает в пасторальный городок Уэйуорд Пайнс в Айдахо, чтобы найти двух пропавших фэбээровцев. ... 8.2 10 5
    Info! Золотая раздача, скачанное не засчитывается.
    Торрент: Зарегистрирован [2015-09-07 17:57] · скачан: 47 раз
    Статус: √ проверено
    Размер: 25.94 GB
    Как cкачать? Как скачать Сосны через торрент | qTorrent

    % Раздел Тема Автор DL S | L
    Зарубежные сериалы [ 10.43 GB ] Сосны / Уэйуорд Пайнс / Wayward Pines / Сезон: 1/ Серии: 1-10 из 10 [ 2015 HDTV 720p] DVO [Кубик в кубе] + Original Messa-fan Скачать
    1 | 0

    28-11-2019 20:33  

    Отключить всю рекламу на сайте

      Дорогой пользователь! Огромная просьба, поблагодарите релизера, оцените раздачу и оставьте свои комментарий, если Вы скачали Сосны через торрент бесплатно! Внесите свою лепту в развитие PiratBit!
      Комментировать посты могут только пользователи прошедшие не сложную регистрацию
      Показать сообщения:    

      Сосны через торрент
      Скачать бесплатно Сосны
      Сосны скачать торрент
      Сосны смотреть онлайн
      Cкачать фильм Сосны бесплатно
      Сосны скачать торрент в хорошем качестве
      Сосны смотреть онлайн бесплатно в хорошем качестве


      Вы не можете начинать темы
      Вы не можете отвечать на сообщения
      Вы не можете редактировать свои сообщения
      Вы не можете удалять свои сообщения
      Вы не можете голосовать в опросах
      Вы не можете прикреплять файлы к сообщениям
      Вы можете скачивать файлы