Ссылка на приватное зеркало нашего сайта всего за 1$. Внимание количество ограничено!!!

2 сезон

iTunes

1 сезон

1

2 сезон

2 сезон

iTunes

1 сезон

RePack

30

Ultimate

ВАЖНО

ИГРА 18+

pack

RePack

MK11
pack

Забери бонус

RePack

jed

!!Акция!!

Alien_Rage

RePack

fifa19

RePack

Assassins Creed: Odyssey

RePack

NEED FOR SPEED™ PAYBACK

4 сезон

9 сезон

Бесстыжие 9 сезон

Все сериалы

все сериалы на PB.wtf

RePack

FAR CRY 5
  

Подлый Пит / Sneaky Pete / Сезон: 1 / Серии 1-10 из 10 (Сет Гордон) [2017, драма, криминал, WEBRip] [MVO] (Jaskier) pb.wtf

Подлый Пит через торрент pb.wtf

Размер: 6.06 GB | Добавлен: 3 года 8 мес. назад | Торрент скачан:333 раза
Скачать  

07-09-2015 18:54 Подлый Пит Скачать торрент  


Подлый Пит | Sneaky Pete

Год выпуска: 2017
Страна: США
Жанр: Драма, криминал
Продолжительность: ~ 00:50:00
Перевод: Профессиональный (многоголосый закадровый) | Jaskier

Режиссёр: Сет Гордон

В ролях: Джованни Рибизи, Марин Айрлэнд, Марго Мартиндейл, Шэйн МакРей, Либэ Барер, Питер Герети, Итэн Эмбри, Доменик Ломбардоззи, Дебра Монк, Майкл Дрэйер и др.

Описание: По сюжету молодой мошенник Пит, отсидев положенный срок, решает завязать с тёмным прошлым, примерив на себя личину бывшего сокамерника. Скрываясь от местной мафии, парень пристраивается в семейный бизнес того самого сокамерника. Со временем он осознает, что такое настоящая семья, и даже обретёт любовь всей своей жизни, но прошлые грехи не позволят ему расслабиться ни на минуту, угрожая уничтожить и главного героя, и его новую жизнь.


Качество: WEBRip
Формат: AVI
Видео: XviD, ~ 1400 kbps, 720x400 (16:9), 23.976 fps
Аудио 1: MP3, 48,0 КГц, 2 ch, 128 kbps - Rus
Аудио 2: MP3, 48,0 КГц, 2 ch, 128 kbps - Eng
Субтитры: отсутствуют
Переведено и озвучено: студией Jaskier
Общее
Полное имя                               : H:\Ясы-сериалы\Sneaky Pete (Season 01) Jaskier\Sneaky.Pete.S01E01.WEBRip.Rus.Eng.Jaskier.avi
Формат                                   : AVI
Формат/Информация                        : Audio Video Interleave
Размер файла                             : 651 Мбайт
Продолжительность                        : 54 м. 15 с.
Общий поток                              : 1677 Кбит/сек
Программа кодирования                    : VirtualDubMod 1.5.10.3 | www.virtualdub-fr.org || (build 2550/release)
Библиотека кодирования                   : VirtualDubMod build 2550/release
Видео
Идентификатор                            : 0
Формат                                   : MPEG-4 Visual
Профиль формата                          : Advanced Simple@L5
Параметр BVOP формата                    : 1
Параметр QPel формата                    : Нет
Параметр GMC формата                     : Без точки перехода
Параметр матрицы формата                 : Default (MPEG)
Идентификатор кодека                     : XVID
Идентификатор кодека/Подсказка           : XviD
Продолжительность                        : 54 м. 15 с.
Битрейт                                  : 1407 Кбит/сек
Ширина                                   : 720 пикселей
Высота                                   : 400 пикселей
Соотношение сторон                       : 16:9
Частота кадров                           : 23,976 (24000/1001) кадра/сек
Цветовое пространство                    : YUV
Субдискретизация насыщенности            : 4:2:0
Битовая глубина                          : 8 бит
Тип развёртки                            : Прогрессивная
Метод сжатия                             : С потерями
Бит/(Пиксели*Кадры)                      : 0.204
Размер потока                            : 546 Мбайт (84%)
Библиотека кодирования                   : XviD 73
Аудио #1
Идентификатор                            : 1
Формат                                   : MPEG Audio
Версия формата                           : Version 1
Профиль формата                          : Layer 3
Режим                                    : Joint stereo
Расширение режима                        : MS Stereo
Идентификатор кодека                     : 55
Идентификатор кодека/Подсказка           : MP3
Продолжительность                        : 54 м. 15 с.
Вид битрейта                             : Постоянный
Битрейт                                  : 128 Кбит/сек
Каналы                                   : 2 канала
Частота                                  : 48,0 КГц
Метод сжатия                             : С потерями
Размер потока                            : 49,7 Мбайт (8%)
Выравнивание                             : Соединение по промежуткам
Продолжительность промежутка             : 42  мс. (1,00 видеокадр)
Время предзагрузки промежутка            : 504  мс.
Аудио #2
Идентификатор                            : 2
Формат                                   : MPEG Audio
Версия формата                           : Version 1
Профиль формата                          : Layer 3
Режим                                    : Joint stereo
Расширение режима                        : MS Stereo
Идентификатор кодека                     : 55
Идентификатор кодека/Подсказка           : MP3
Продолжительность                        : 54 м. 15 с.
Вид битрейта                             : Постоянный
Битрейт                                  : 128 Кбит/сек
Каналы                                   : 2 канала
Частота                                  : 48,0 КГц
Метод сжатия                             : С потерями
Размер потока                            : 49,7 Мбайт (8%)
Выравнивание                             : Соединение по промежуткам
Продолжительность промежутка             : 42  мс. (1,00 видеокадр)
Время предзагрузки промежутка            : 504  мс.
pb.wtf



Скачать Подлый Пит через торрент https://i89.fastpic.ru/big/2017/0319/81/39aed850b27aa7e2fa9ddeb57bf57881.png Скачать фильм Подлый Пит через торрент бесплантно в хорошем качестве Описание: По сюжету молодой мошенник Пит, отсидев положенный срок, решает завязать с тёмным прошлым, примерив на себя личину бывшего ... 8 10 9
Торрент: Зарегистрирован [2017-03-23 14:04] · скачан: 333 раз
Статус: √ проверено
Размер: 6.06 GB
Как cкачать? Как скачать Подлый Пит через торрент | qTorrent

% Раздел Тема Автор DL S | L
Зарубежные сериалы [ 32.46 GB ] Подлый Пит / Sneaky Pete / Сезон: 3 / Серии: 1-10 из 10 [2019 UHD WEB-DL 2160p] MVO [LostFilm] sheker187 Скачать
1 | 0
Зарубежные сериалы [ 6.27 GB ] Подлый Пит / Sneaky Pete / Сезон: 3 / Серии: 1-10 из 10 [2019 WEB-DLRip] [MVO] killermax2013 Скачать
1 | 0
Зарубежные сериалы [ 12.27 GB ] Подлый Пит / Sneaky Pete / Сезон: 3 / Серии: 1-8 из 10 [2019 WEB-DL 720p] MVO [Lostfilm] bober100 Скачать
1 | 0
Зарубежные сериалы [ 25.6 GB ] Подлый Пит / Sneaky Pete / Сезон: 3 / Серии: 1-10 из 10 [2019 WEB-DL 1080p] [MVO] killermax2013 Скачать
1 | 0
Фильмы без перевода [ 23.55 GB ] Подлый Пит / Sneaky Pete / Сезон: 3 / Серии: 1-10 из 10 [2019 WEBRip 1080p] [AMZN] [Multi Subs] killermax2013 Скачать
1 | 0
Зарубежные сериалы [ 37.26 GB ] Подлый пит / Sneaky Pete / Сезон: 2 / Серии: 1-10 из 10 [2018 WEB-DL 1080p] MVO [TVShows] bober100 Скачать
1 | 0
Зарубежные сериалы [ 13 GB ] Подлый Пит / Sneaky Pete / Сезон: 2 / Серии: 1-10 из 10 [2018 WEB-DL 720p] MVO [Jaskier] bober100 Скачать
1 | 0


Последний раз редактировалось: killermax2013 (2017-03-23 14:10), всего редактировалось 4 раз(а)

28-11-2019 20:33  

Отключить всю рекламу на сайте

07-09-2015 21:29 Подлый Пит Скачать торрент  

Спасибо,попробуемpb.wtf



21-09-2015 17:13 Подлый Пит Скачать торрент  

Когда 2 серия?pb.wtf



23-03-2017 14:08 Подлый Пит Скачать торрент  

добавлены все серииpb.wtf



    Дорогой пользователь! Огромная просьба, поблагодарите релизера, оцените раздачу и оставьте свои комментарий, если Вы скачали Подлый Пит через торрент бесплатно! Внесите свою лепту в развитие PiratBit!
    Комментировать посты могут только пользователи прошедшие не сложную регистрацию
    Показать сообщения:    

    Подлый Пит через торрент
    Скачать бесплатно Подлый Пит
    Подлый Пит скачать торрент
    Подлый Пит смотреть онлайн
    Cкачать фильм Подлый Пит бесплатно
    Подлый Пит скачать торрент в хорошем качестве
    Подлый Пит смотреть онлайн бесплатно в хорошем качестве


    Вы не можете начинать темы
    Вы не можете отвечать на сообщения
    Вы не можете редактировать свои сообщения
    Вы не можете удалять свои сообщения
    Вы не можете голосовать в опросах
    Вы не можете прикреплять файлы к сообщениям
    Вы можете скачивать файлы