Ссылка на приватное зеркало всего за 1$. Внимание количество ограничено!!!

OK

1+1

iTunes

мы

OK

1

WEB-DLRip

Джокер

Пифагор

Ведьмак / The Witcher сериал

Лицензия

ПШазам

ОК

Оно 2

iTunes

30
pack

Вам бонус

ВАЖНО

!!Акция!!

Alien_RageХит недели

RePack

Resident Evil 21

ИГРА 18+

pack

RePack

jed

RePack

fifa19

RePack

Assassins Creed: Odyssey

RePack

NEED FOR SPEED™ PAYBACK

4 сезон

9 сезон

Бесстыжие 9 сезон

Все сериалы

все сериалы на PB.wtf

RePack

FAR CRY 5
  

Мифика: Тёмные времена / Mythica: The Darkspore (Энн К. Блэк) [2015, фэнтези, боевик, приключения, HDRip, Профессиональный (многоголосый) pb.wtf

Мифика: Тёмные времена через торрент pb.wtf

Размер: 1.46 GB | Добавлен: 4 года 4 мес. назад | Торрент скачан:1380 раз
Скачать  

07-09-2015 19:05 Мифика: Тёмные времена Скачать торрент  


Мифика: Тёмные времена / Mythica: The Darkspore


ИНФОРМАЦИЯ:
Год выпуска:2015
Страна: США
Жанр: фэнтези, боевик, приключения
Продолжительность: 01:48:51
Перевод: Профессиональный (многоголосый)[Официальный звук]
Режиссер: Энн К. Блэк

В Ролях:


Мелани Стоун (Marek), Адам Джонсон (Thane), Джейк Стормоен (Dagen), Никки Поснер (Teela), Роки Майерс (Qole), Кристофер Робин Миллер (Hammerhead), Кевин Сорбо (Gojun Pye), Роберт Джейн (Peregus Malister), Larissa Beck (Embarr), Дэйв Бреснахэн (Medieval soldier), Ки Чан (Kishkumen), Натали Дивайн (Caeryn)

Описание:
Марек и её друзья должны отправиться в путешествие, что бы спасти Зорлок от гибели.

  • Мировая премьера:19 июня 2015

    ТЕХ.ДАННЫЕ:
    Качество: HDRip
    Формат: AVI
    Видео кодек: XviD
    Аудио кодек: AC3
    Видео: XviD, 720x400 (16:9), 1717 kbps, 23,976 fps, 0,249 bpp
    Аудио: AC3 / 2.0 / 48 kHz / 192 kbps / 16 bit


    General
    Complete name : D:\Торенты\Mifika.Temnye.vremena.2015.P.HDRip.avi
    Format : AVI
    Format/Info : Audio Video Interleave
    File size : 1.46 GiB
    Duration : 1h 48mn
    Overall bit rate : 1 919 Kbps
    Writing application : VirtualDubMod 1.5.10.2 (build 2540/release)
    Writing library : VirtualDubMod build 2540/release

    Video
    ID : 0
    Format : MPEG-4 Visual
    Format profile : Advanced Simple@L5
    Format settings, BVOP : 2
    Format settings, QPel : No
    Format settings, GMC : No warppoints
    Format settings, Matrix : Default (MPEG)
    Codec ID : XVID
    Codec ID/Hint : XviD
    Duration : 1h 48mn
    Bit rate : 1 718 Kbps
    Width : 720 pixels
    Height : 400 pixels
    Display aspect ratio : 16:9
    Frame rate : 23.976 fps
    Color space : YUV
    Chroma subsampling : 4:2:0
    Bit depth : 8 bits
    Scan type : Progressive
    Compression mode : Lossy
    Bits/(Pixel*Frame) : 0.249
    Stream size : 1.31 GiB (90%)
    Writing library : XviD 1.2.1 (UTC 2008-12-04)

    Audio
    ID : 1
    Format : AC-3
    Format/Info : Audio Coding 3
    Mode extension : CM (complete main)
    Codec ID : 2000
    Duration : 1h 48mn
    Bit rate mode : Constant
    Bit rate : 192 Kbps
    Channel(s) : 2 channels
    Channel positions : Front: L R
    Sampling rate : 48.0 KHz
    Bit depth : 16 bits
    Compression mode : Lossy
    Stream size : 149 MiB (10%)
    Alignment : Split accross interleaves
    Interleave, duration : 42 ms (1.00 video frame)
    Interleave, preload duration : 500 ms
    Скриншоты:


    © Оформление by Ворон
    pb.wtf



  • Скачать Мифика: Тёмные времена через торрент http://pic.kartinco.top/images/6/ordi9.jpg Скачать фильм Мифика: Тёмные времена через торрент бесплантно в хорошем качестве Описание: Марек и её друзья должны отправиться в путешествие, что бы спасти Зорлок от гибели. Мировая премьера:19 июня 2015 ТЕХ.ДАННЫЕ: ... 9.7 10 35
    Торрент: Зарегистрирован [2015-09-07 19:05] · скачан: 1 380 раз
    Статус: T временная
    Размер: 1.46 GB
    Как cкачать? Как скачать Мифика: Тёмные времена через торрент | qTorrent

    % Раздел Тема Автор DL S | L
    T Фильмы [HD 720p, 1080p] (Хороший звук DUB, MVO) [ 7.8 GB ] Мифика: Тёмные времена / Mythica: The Darkspore [2015 BDRip 1080p Ворон Скачать
    1 | 0
    T Фильмы [HD 720p, 1080p] (Хороший звук DUB, MVO) [ 4.51 GB ] Мифика: Тёмные времена / Mythica: The Darkspore [2015 BDRip 720p Ворон Скачать
    1 | 0


    Последний раз редактировалось: Ворон (2015-09-07 20:47), всего редактировалось 1 раз

    28-11-2019 20:33  

    Отключить всю рекламу на сайте

    07-09-2015 20:33 Мифика: Тёмные времена Скачать торрент  

    Эпическое описание фильма , как не менее эпический третий скриншот .pb.wtf



    08-09-2015 02:22 Мифика: Тёмные времена Скачать торрент  

    PIXELINTERLAN, это вторая часть. У первой описание была обширнее.pb.wtf



    08-09-2015 09:16 Мифика: Тёмные времена Скачать торрент  

    отличный кинчик, покруче властелин колец будетpb.wtf



    08-09-2015 10:05 Мифика: Тёмные времена Скачать торрент  

    отличный кинчик, покруче властелин колец будет
    типа сарказмpb.wtf



    08-09-2015 16:21 Мифика: Тёмные времена Скачать торрент  

    Да по трейлеру ,фильм бомба,рвотная бомба pb.wtf



    08-09-2015 16:24 Мифика: Тёмные времена Скачать торрент  

    выдержал 10 минут((pb.wtf



    08-09-2015 16:48 Мифика: Тёмные времена Скачать торрент  

    Не обольщайтесь ребят, снято энтузиастами при поддержке Кикстартера. Первая часть была очень плохой, вторая с виду даже чуть получше.pb.wtf



    08-09-2015 17:38 Мифика: Тёмные времена Скачать торрент  

    bibikovmast писал(а):

    отличный кинчик, покруче властелин колец будет
    типа сарказм

    а может для него и типо нет)))pb.wtf



    08-09-2015 19:29 Мифика: Тёмные времена Скачать торрент  

    pb.wtf



    09-09-2015 05:37 Мифика: Тёмные времена Скачать торрент  

    Я еще большей бессмысленной ахинеи не видел. Пустая трата денег для съемок.pb.wtf



    10-09-2015 03:22 Мифика: Тёмные времена Скачать торрент  

    дерьмо малобюджетноеpb.wtf



    15-09-2015 10:55 Мифика: Тёмные времена Скачать торрент  

    adm1ral1968 писал(а):

    отличный кинчик, покруче властелин колец будет

    чувак, ты что курил? сравнивать это говно с Властелином колец надо быть в хлам убитымpb.wtf



      Дорогой пользователь! Огромная просьба, поблагодарите релизера, оцените раздачу и оставьте свои комментарий, если Вы скачали Мифика: Тёмные времена через торрент бесплатно! Внесите свою лепту в развитие PiratBit!
      Комментировать посты могут только пользователи прошедшие не сложную регистрацию
      Показать сообщения:    

      Мифика: Тёмные времена через торрент
      Скачать бесплатно Мифика: Тёмные времена
      Мифика: Тёмные времена скачать торрент
      Мифика: Тёмные времена смотреть онлайн
      Cкачать фильм Мифика: Тёмные времена бесплатно
      Мифика: Тёмные времена скачать торрент в хорошем качестве
      Мифика: Тёмные времена смотреть онлайн бесплатно в хорошем качестве


      Вы не можете начинать темы
      Вы не можете отвечать на сообщения
      Вы не можете редактировать свои сообщения
      Вы не можете удалять свои сообщения
      Вы не можете голосовать в опросах
      Вы не можете прикреплять файлы к сообщениям
      Вы можете скачивать файлы