Ссылка на приватное зеркало всего за 1$. Внимание количество ограничено!!!

iTunes

1+1

iTunes

мы

WEB-DL

1

iTunes

Чернобыль

iTunes

Ральф против интернета

Лицензия

ПШазам

Лицензия

Оно 2

Лицензия

30
pack

Вам бонус

ВАЖНО

!!Акция!!

Alien_RageХит недели

RePack

Resident Evil 21

ИГРА 18+

pack

RePack

jed

!!Акция!!

Alien_Rage

RePack

fifa19

RePack

Assassins Creed: Odyssey

RePack

NEED FOR SPEED™ PAYBACK

3 сезон

9 сезон

Бесстыжие 9 сезон

Все сериалы

все сериалы на PB.wtf

RePack

FAR CRY 5
Ребята, катастрофически не хватает 1900р. для оплаты серверов за Октябрь (всвязи с блокировками трафик упал в 3 раза), 1-2р., выручайте.
  

Частная жизнь Петра Виноградова (Александр Мачерет) [1934, комедия, DVDRip от AVP Studio] pb.wtf

Частная жизнь Петра Виноградова через торрент pb.wtf

Размер: 1.09 GB | Добавлен: 3 года 7 мес. назад | Торрент скачан:18 раз
Скачать  

07-09-2015 20:00 Частная жизнь Петра Виноградова Скачать торрент  

Частная жизнь Петра Виноградова
Страна: СССР
Производство: Москинокомбинат

Жанр: киноповесть
Год выпуска: 1934
Продолжительность: 01:23:34

Перевод: Не требуется
Cубтитры: нет
Оригинальная аудиодорожка: русский

Режиссер: Александр Мачерет

В ролях:
Борис Ливанов, Валентин Цишевский, Константин Градополов (старший), Галина Пашкова, Надежда Арди...
Полный список актёров

Описание:
Выпускники школы Петр Виноградов, Сеня Кауфман и Котя Охотников отправляются из далекого города в Москву. Приятели обещают не забывать родной город и друзей. Петя с грустью прощается с любимой девушкой Валей, мечтающей поступить в Московскую консерваторию. Приехав в столицу, друзья поступают работать на автозавод и устраиваются в вечерний вуз. Многие предложения Петра Виноградова, озаренного гениальными техническими идеями, находят поддержку. Но столичная суета и свалившаяся на него слава кружат ему голову до такой степени, что Петр теряет чувство реальности. Он любил громко петь, не имея слуха. Он любил читать свои стихи, от которых за версту разило графоманством. Он любил читать "Гамлета", не понимая смысла шекспировских слов. Он не умер бы от скромности. Он берется за несколько дел сразу, при этом ухаживая одновременно за двумя девушками. Конечно, рано или поздно всему этому наступает предел. Он решил завоевать Москву, а столица... поставила его на место.

Источник: DVD5 R5
Качество видео: DVDRip
Формат видео: AVI
Видео кодек: XviD
Аудио кодек: AC3
Видео: 688x512 (4:3), 25 fps, XviD ~ 1661 kbps avg, 0.189 bit/pixel
Аудио: 48 kHz, Dolby Digital AC3 2.0, 192 kbps

Раздача от:
Общее
Полное имя : Chastnaya zhizn Petra Vinogradova.1934.DVDRip_[New-team]_by_AVP_Studio.avi
Формат : AVI
Формат/Информация : Audio Video Interleave
Размер файла : 1,09 Гбайт
Продолжительность : 1 ч. 23 м.
Общий поток : 1863 Кбит/сек
Программа кодирования : VirtualDubMod 1.5.10.3 | www.virtualdub-fr.org || (build 2550/release)
Библиотека кодирования : VirtualDubMod build 2550/release

Видео
Идентификатор : 0
Формат : MPEG-4 Visual
Профиль формата : Advanced Simple@L5
Параметр BVOP формата : 1
Параметр QPel формата : Нет
Параметр GMC формата : Без точки перехода
Параметр матрицы формата : Выборочная
Идентификатор кодека : XVID
Идентификатор кодека/Подсказка : XviD
Продолжительность : 1 ч. 23 м.
Битрейт : 1661 Кбит/сек
Ширина : 688 пикселей
Высота : 512 пикселей
Соотношение сторон : 4:3
Частота кадров : 25,000 кадров/сек
Цветовое пространство : YUV
Субдискретизация насыщенности : 4:2:0
Битовая глубина : 8 бит
Тип развёртки : Прогрессивная
Метод сжатия : С потерями
Бит/(Пиксели*Кадры) : 0.189
Размер потока : 993 Мбайт (89%)
Библиотека кодирования : XviD 73

Аудио
Идентификатор : 1
Формат : AC-3
Формат/Информация : Audio Coding 3
Расширение режима : CM (complete main)
Параметр Endianness формата : Big
Идентификатор кодека : 2000
Продолжительность : 1 ч. 23 м.
Вид битрейта : Постоянный
Битрейт : 192 Кбит/сек
Каналы : 2 канала
Расположение каналов : Front: L R
Частота : 48,0 КГц
Метод сжатия : С потерями
Размер потока : 115 Мбайт (10%)
Выравнивание : Разделение по промежуткам
Продолжительность промежутка : 40 мс. (1,00 видеокадр)
Время предзагрузки промежутка : 500 мс
pb.wtf



Скачать Частная жизнь Петра Виноградова через торрент http://s58.radikal.ru/i160/1509/02/8e1247101d9b.png Скачать фильм Частная жизнь Петра Виноградова через торрент бесплантно в хорошем качестве Описание:Выпускники школы Петр Виноградов, Сеня Кауфман и Котя Охотников отправляются из далекого города в Москву. Приятели обещают не ... 5 10 1
Info! Золотая раздача, скачанное не засчитывается.
Торрент: Зарегистрирован [2016-04-19 12:29] · скачан: 18 раз
Статус: √ проверено
Размер: 1.09 GB
Как cкачать? Как скачать Частная жизнь Петра Виноградова через торрент | qTorrent

% Раздел Тема Автор DL S | L
Кино СССР [ 1.09 GB ] Частная жизнь Петра Виноградова [1934 DVDRip-AVC от AVP Studio] AVP Studio Скачать
1 | 0
Кино СССР [ 745 MB ] Частная жизнь Петра Виноградова [1934 DVDRip от AVP Studio] AVP Studio Скачать
1 | 0

28-11-2019 20:33  

Отключить всю рекламу на сайте

    Дорогой пользователь! Огромная просьба, поблагодарите релизера, оцените раздачу и оставьте свои комментарий, если Вы скачали Частная жизнь Петра Виноградова через торрент бесплатно! Внесите свою лепту в развитие PiratBit!
    Комментировать посты могут только пользователи прошедшие не сложную регистрацию
    Показать сообщения:    

    Частная жизнь Петра Виноградова через торрент
    Скачать бесплатно Частная жизнь Петра Виноградова
    Частная жизнь Петра Виноградова скачать торрент
    Частная жизнь Петра Виноградова смотреть онлайн
    Cкачать фильм Частная жизнь Петра Виноградова бесплатно
    Частная жизнь Петра Виноградова скачать торрент в хорошем качестве
    Частная жизнь Петра Виноградова смотреть онлайн бесплатно в хорошем качестве


    Вы не можете начинать темы
    Вы не можете отвечать на сообщения
    Вы не можете редактировать свои сообщения
    Вы не можете удалять свои сообщения
    Вы не можете голосовать в опросах
    Вы не можете прикреплять файлы к сообщениям
    Вы можете скачивать файлы