Ссылка на приватное зеркало нашего сайта всего за 1$. Внимание количество ограничено!!!

2 сезон

iTunes

1 сезон

1

iTunes

iTunes

iTunes

1 сезон

RePack

30

ИГРА 18+

pack

ВАЖНО

!!Акция!!

Alien_RageХит недели

RePack

MK11
pack

Забери бонус

RePack

jed

!!Акция!!

Alien_Rage

RePack

fifa19

RePack

Assassins Creed: Odyssey

RePack

NEED FOR SPEED™ PAYBACK

4 сезон

9 сезон

Бесстыжие 9 сезон

Все сериалы

все сериалы на PB.wtf

RePack

FAR CRY 5
  

Мифика: Тёмные времена / Mythica: The Darkspore (Энн К. Блэк) [2015, фэнтези, боевик, приключения, BDRip 1080p, Профессиональный (многоголосый) pb.wtf

Мифика: Тёмные времена через торрент pb.wtf

Размер: 7.8 GB | Добавлен: 5 лет 1 мес. назад | Торрент скачан:197 раз
Скачать  

08-09-2015 05:27 Мифика: Тёмные времена Скачать торрент  


Мифика: Тёмные времена / Mythica: The Darkspore


ИНФОРМАЦИЯ:
Год выпуска:2015
Страна: США
Жанр: фэнтези, боевик, приключения
Продолжительность: 01:48:51
Перевод: Профессиональный (многоголосый)
Режиссер: Энн К. Блэк

В Ролях:


Мелани Стоун (Marek), Адам Джонсон (Thane), Джейк Стормоен (Dagen), Никки Поснер (Teela), Роки Майерс (Qole), Кристофер Робин Миллер (Hammerhead), Кевин Сорбо (Gojun Pye), Роберт Джейн (Peregus Malister), Larissa Beck (Embarr), Дэйв Бреснахэн (Medieval soldier), Ки Чан (Kishkumen), Натали Дивайн (Caeryn)

Описание:
Марек и её друзья должны отправиться в путешествие, что бы спасти Зорлок от гибели.

  • Мировая премьера:19 июня 2015

    ТЕХ.ДАННЫЕ:
    Качество: BDRip 1080p
    Формат: MKV
    Видео кодек: AVC
    Аудио кодек: AC3, DTS
    Видео: AVC, 1920x1080 (16:9), 8553 kbps, 23,976 fps, 0,172 bpp
    Аудио №1: русский / AC3 / 2.0 / 48 kHz / 192 kbps / 16 bit ||
    Аудио №2: английский / DTS / 5.1 / 48 kHz / 1510 kbps / 24 bit
    Навигация по главам: есть


    Общее
    Уникальный идентификатор : 252545842743946608633534612600456870171 (0xBDFE8F61DE625AF0BE0B2AE04AF1F91B)
    Полное имя : D:\Торенты\Mifika.Temnye.vremena.2015.P.BDRip.1080p.mkv
    Формат : Matroska
    Версия формата : Version 4 / Version 2
    Размер файла : 7,80 Гбайт
    Продолжительность : 1 ч. 48 м.
    Общий поток : 10,3 Мбит/сек
    Дата кодирования : UTC 2015-09-07 17:14:44
    Программа кодирования : mkvmerge v8.2.0 ('World of Adventure') 64bit
    Библиотека кодирования : libebml v1.3.1 + libmatroska v1.4.2

    Видео
    Идентификатор : 1
    Формат : AVC
    Формат/Информация : Advanced Video Codec
    Профиль формата : High@L4.1
    Параметр CABAC формата : Да
    Параметр ReFrames формата : 4 кадра
    Идентификатор кодека : V_MPEG4/ISO/AVC
    Продолжительность : 1 ч. 48 м.
    Битрейт : 8553 Кбит/сек
    Ширина : 1920 пикселей
    Высота : 1080 пикселей
    Соотношение сторон : 16:9
    Режим частоты кадров : Постоянный
    Частота кадров : 23,976 кадра/сек
    Цветовое пространство : YUV
    Субдискретизация насыщенности : 4:2:0
    Битовая глубина : 8 бит
    Тип развёртки : Прогрессивная
    Бит/(Пиксели*Кадры) : 0.172
    Размер потока : 6,35 Гбайт (81%)
    Библиотека кодирования : x264 core 148 r2579 73ae2d1
    Настройки программы : cabac=1 / ref=4 / deblock=1:0:0 / analyse=0x3:0x113 / me=umh / subme=8 / psy=1 / psy_rd=1.00:0.00 / mixed_ref=1 / me_range=16 / chroma_me=1 / trellis=1 / 8x8dct=1 / cqm=0 / deadzone=21,11 / fast_pskip=0 / chroma_qp_offset=-2 / threads=12 / lookahead_threads=2 / sliced_threads=0 / nr=0 / decimate=1 / interlaced=0 / bluray_compat=0 / constrained_intra=0 / bframes=3 / b_pyramid=2 / b_adapt=2 / b_bias=0 / direct=3 / weightb=1 / open_gop=0 / weightp=2 / keyint=250 / keyint_min=23 / scenecut=40 / intra_refresh=0 / rc_lookahead=50 / rc=2pass / mbtree=1 / bitrate=8553 / ratetol=1.0 / qcomp=0.60 / qpmin=0 / qpmax=69 / qpstep=4 / cplxblur=20.0 / qblur=0.5 / ip_ratio=1.40 / aq=1:1.00
    Язык : English
    Default : Да
    Forced : Нет

    Аудио #1
    Идентификатор : 2
    Формат : AC-3
    Формат/Информация : Audio Coding 3
    Расширение режима : CM (complete main)
    Параметр Endianness формата : Big
    Идентификатор кодека : A_AC3
    Продолжительность : 1 ч. 48 м.
    Вид битрейта : Постоянный
    Битрейт : 192 Кбит/сек
    Каналы : 2 канала
    Расположение каналов : Front: L R
    Частота : 48,0 КГц
    Битовая глубина : 16 бит
    Метод сжатия : С потерями
    Размер потока : 149 Мбайт (2%)
    Язык : Russian
    Default : Да
    Forced : Да

    Аудио #2
    Идентификатор : 3
    Формат : DTS
    Формат/Информация : Digital Theater Systems
    Режим : 16
    Параметр Endianness формата : Big
    Идентификатор кодека : A_DTS
    Продолжительность : 1 ч. 48 м.
    Вид битрейта : Постоянный
    Битрейт : 1509 Кбит/сек
    Каналы : 6 каналов
    Расположение каналов : Front: L C R, Side: L R, LFE
    Частота : 48,0 КГц
    Битовая глубина : 24 бит
    Метод сжатия : С потерями
    Размер потока : 1,15 Гбайт (15%)
    Язык : English
    Default : Нет
    Forced : Нет

    Меню
    00:00:00.000 : en:00:00:00.000
    00:09:58.890 : en:00:09:58.890
    00:19:41.263 : en:00:19:41.263
    00:30:12.686 : en:00:30:12.686
    00:40:11.284 : en:00:40:11.284
    00:49:48.736 : en:00:49:48.736
    01:00:34.881 : en:01:00:34.881
    01:10:26.889 : en:01:10:26.889
    01:21:19.333 : en:01:21:19.333
    01:31:27.357 : en:01:31:27.357
    01:39:37.513 : en:01:39:37.513
    01:44:22.840 : en:01:44:22.840
    Скриншоты:


    © Оформление by Ворон
    pb.wtf



  • Скачать Мифика: Тёмные времена через торрент http://pic.kartinco.top/images/6/ordi9.jpg Скачать фильм Мифика: Тёмные времена через торрент бесплантно в хорошем качестве Описание: Марек и её друзья должны отправиться в путешествие, что бы спасти Зорлок от гибели. Мировая премьера:19 июня 2015 ТЕХ.ДАННЫЕ: ... 10 10 8
    Торрент: Зарегистрирован [2015-09-08 05:27] · скачан: 197 раз
    Статус: T временная
    Размер: 7.8 GB
    Как cкачать? Как скачать Мифика: Тёмные времена через торрент | qTorrent

    % Раздел Тема Автор DL S | L
    T Фильмы 2015 [DVDrip, WEB-DLRip, HDrip] [ 1.46 GB ] Мифика: Тёмные времена / Mythica: The Darkspore [2015 HDRip Ворон Скачать
    1 | 0
    T Фильмы [HD 720p, 1080p] (Хороший звук DUB, MVO) [ 4.51 GB ] Мифика: Тёмные времена / Mythica: The Darkspore [2015 BDRip 720p Ворон Скачать
    1 | 0

    28-11-2019 20:33  

    Отключить всю рекламу на сайте

    08-09-2015 06:00 Мифика: Тёмные времена Скачать торрент  

    Описание читать устал, такое повествовательное четырехсловие. И еще второе существо на фото в ролях - Адам Джонсон - это что?pb.wtf



    08-09-2015 06:59 Мифика: Тёмные времена Скачать торрент  

    кстати, да, описание очень одержательное...pb.wtf



      Дорогой пользователь! Огромная просьба, поблагодарите релизера, оцените раздачу и оставьте свои комментарий, если Вы скачали Мифика: Тёмные времена через торрент бесплатно! Внесите свою лепту в развитие PiratBit!
      Комментировать посты могут только пользователи прошедшие не сложную регистрацию
      Показать сообщения:    

      Мифика: Тёмные времена через торрент
      Скачать бесплатно Мифика: Тёмные времена
      Мифика: Тёмные времена скачать торрент
      Мифика: Тёмные времена смотреть онлайн
      Cкачать фильм Мифика: Тёмные времена бесплатно
      Мифика: Тёмные времена скачать торрент в хорошем качестве
      Мифика: Тёмные времена смотреть онлайн бесплатно в хорошем качестве


      Вы не можете начинать темы
      Вы не можете отвечать на сообщения
      Вы не можете редактировать свои сообщения
      Вы не можете удалять свои сообщения
      Вы не можете голосовать в опросах
      Вы не можете прикреплять файлы к сообщениям
      Вы можете скачивать файлы