новый адрес
Ссылка на приватное зеркало всего за 1$. Внимание количество ограничено!!!

iTunes

1+1

iTunes

мы

iTunes

1

iTunes

Чернобыль

iTunes

Ральф против интернета

Лицензия

ПШазам

Лицензия

Оно 2

Лицензия

30
pack

Вам бонус

ВАЖНО

!!Акция!!

Alien_RageХит недели

RePack

Resident Evil 21

ИГРА 18+

pack

RePack

jed

!!Акция!!

Alien_Rage

RePack

fifa19

RePack

Assassins Creed: Odyssey

RePack

NEED FOR SPEED™ PAYBACK

3 сезон

9 сезон

Бесстыжие 9 сезон

Все сериалы

все сериалы на PB.wtf

RePack

FAR CRY 5
Ребята, катастрофически не хватает 1900р. для оплаты серверов за Октябрь (всвязи с блокировками трафик упал в 3 раза), 1-2р., выручайте.
  

Тайная жизнь слов / The Secret Life of Words (Изабель Койшет) [2005 г., драма, мелодрама, BDRip 720p] MVO, DVO pb.wtf

Тайная жизнь слов через торрент pb.wtf

Размер: 5.29 GB | Добавлен: 4 года 2 мес. назад | Торрент скачан:12 раз
Скачать  

08-09-2015 17:17 Тайная жизнь слов Скачать торрент  

Тайная жизнь слов / The Secret Life of Words



Год выпуска: 2005

Страна: Испания

Жанр: драма, мелодрама

Продолжительность: 01:55:14

Перевод: Профессиональный [многоголосый]; [двухголосый]
Режиссер: Изабель Койшет
Рейтинг Кинопоиска: 7.950 (5116)
Рейтинг IMDb: 7.5 (9742)
В ролях: Сара Полли, Тим Роббинс, Сверре Анкер Оусдаль, Хавьер Камара, Дэнни Каннингэм, Дин Леннокс Келли, Дэниэл Мейс, Эммануель Идову, Эдди Марсан, Стивен Макинтош
Описание: Клочок суши посреди моря. На нефтяной вышке, где работают только мужчины, произошел несчастный случай. Одинокая загадочная женщина, которая пытается забыть свое прошлое, прибывает сюда, чтобы ухаживать за человеком, пострадавшим в результате этого несчастного случая.

Между ними возникает странная близость, наполненная тайнами, правдой и ложью, юмором и болью - близость, из которой им не выйти невредимыми и которая изменит жизнь каждого из них навсегда. Это фильм о том, что такое груз прошлого. Но, прежде всего - о силе любви...
Качество: BDRip 720p

Формат: MKV

Видео кодек: AVC

Аудио кодек: AC3, DTS

Видео: 1280x690 at 23.976 fps, 4354 kbps

Аудио#1: Russian: 48 kHz, AC3, 3/2 (L,C,R,l,r) + LFE ch, ~384.00 kbps avg |Многоголосый закадровый, R5|
Аудио#2: Russian: 48 kHz, AC3, 2/0 (L,R) ch, ~192.00 kbps avg |Двухголосый закадровый|
Аудио#3: English: 48 kHz, DTS, 3/2 (L,C,R,l,r) + LFE ch, ~1536.00 kbps avg
Субтитры: Русские, Украинские, Английские, Немецкие


Общее
Уникальный идентификатор : 170604236013274910510343711221056745663 (0x80592E40E5420B68AA7C6466C45F30BF)
Полное имя : D:\Торенты\The.Secret.Life.of.Words.2005.720p.BluRay.Rus.Eng.HDCLUB.mkv
Формат : Matroska
Версия формата : Version 2
Размер файла : 5,29 Гбайт
Продолжительность : 1 ч. 55 м.
Общий поток : 6570 Кбит/сек
Дата кодирования : UTC 2012-01-17 18:56:47
Программа кодирования : mkvmerge v3.4.0 ('Rapunzel') сборка от May 15 2010 09:38:20
Библиотека кодирования : libebml v0.8.0 + libmatroska v0.9.0

Видео
Идентификатор : 1
Формат : AVC
Формат/Информация : Advanced Video Codec
Профиль формата : High@L4.1
Параметр CABAC формата : Да
Параметр ReFrames формата : 9 кадров
Идентификатор кодека : V_MPEG4/ISO/AVC
Продолжительность : 1 ч. 55 м.
Битрейт : 4354 Кбит/сек
Ширина : 1280 пикселей
Высота : 690 пикселей
Соотношение сторон : 1,85:1
Режим частоты кадров : Постоянный
Частота кадров : 23,976 кадра/сек
Цветовое пространство : YUV
Субдискретизация насыщенности : 4:2:0
Битовая глубина : 8 бит
Тип развёртки : Прогрессивная
Бит/(Пиксели*Кадры) : 0.206
Размер потока : 3,51 Гбайт (66%)
Заголовок : The Secret Life of Words
Библиотека кодирования : x264 core 119 r2106 07efeb4
Настройки программы : cabac=1 / ref=9 / deblock=1:-3:-3 / analyse=0x3:0x133 / me=umh / subme=9 / psy=1 / psy_rd=1.25:0.15 / mixed_ref=1 / me_range=16 / chroma_me=1 / trellis=2 / 8x8dct=1 / cqm=0 / deadzone=21,11 / fast_pskip=0 / chroma_qp_offset=-3 / threads=12 / sliced_threads=0 / nr=0 / decimate=0 / interlaced=0 / bluray_compat=0 / constrained_intra=0 / bframes=8 / b_pyramid=2 / b_adapt=2 / b_bias=0 / direct=3 / weightb=1 / open_gop=0 / weightp=2 / keyint=250 / keyint_min=23 / scenecut=40 / intra_refresh=0 / rc=crf / mbtree=0 / crf=17.5 / qcomp=0.60 / qpmin=10 / qpmax=51 / qpstep=4 / ip_ratio=1.40 / pb_ratio=1.30 / aq=1:0.60
Язык : English
Default : Нет
Forced : Нет

Аудио #1
Идентификатор : 2
Формат : AC-3
Формат/Информация : Audio Coding 3
Расширение режима : CM (complete main)
Параметр Endianness формата : Big
Идентификатор кодека : A_AC3
Продолжительность : 1 ч. 55 м.
Вид битрейта : Постоянный
Битрейт : 384 Кбит/сек
Каналы : 6 каналов
Расположение каналов : Front: L C R, Side: L R, LFE
Частота : 48,0 КГц
Битовая глубина : 16 бит
Метод сжатия : С потерями
Размер потока : 317 Мбайт (6%)
Заголовок : AC3 5.1 @ 384 kbps - Многоголосый закадровый, R5
Язык : Russian
Default : Да
Forced : Нет

Аудио #2
Идентификатор : 3
Формат : AC-3
Формат/Информация : Audio Coding 3
Расширение режима : CM (complete main)
Параметр Endianness формата : Big
Идентификатор кодека : A_AC3
Продолжительность : 1 ч. 55 м.
Вид битрейта : Постоянный
Битрейт : 192 Кбит/сек
Каналы : 2 канала
Расположение каналов : Front: L R
Частота : 48,0 КГц
Битовая глубина : 16 бит
Метод сжатия : С потерями
Размер потока : 158 Мбайт (3%)
Заголовок : AC3 2.0 @ 192 kbps - Двухголосый закадровый
Язык : Russian
Default : Нет
Forced : Нет

Аудио #3
Идентификатор : 4
Формат : DTS
Формат/Информация : Digital Theater Systems
Режим : 16
Параметр Endianness формата : Big
Идентификатор кодека : A_DTS
Продолжительность : 1 ч. 55 м.
Вид битрейта : Постоянный
Битрейт : 1509 Кбит/сек
Каналы : 6 каналов
Расположение каналов : Front: L C R, Side: L R, LFE
Частота : 48,0 КГц
Битовая глубина : 16 бит
Метод сжатия : С потерями
Размер потока : 1,21 Гбайт (23%)
Заголовок : DTS 5.1 @ 1536 kbps
Язык : English
Default : Нет
Forced : Нет

Текст #1
Идентификатор : 5
Формат : UTF-8
Идентификатор кодека : S_TEXT/UTF8
Идентификатор кодека/Информация : UTF-8 Plain Text
Язык : Russian
Default : Нет
Forced : Нет

Текст #2
Идентификатор : 6
Формат : UTF-8
Идентификатор кодека : S_TEXT/UTF8
Идентификатор кодека/Информация : UTF-8 Plain Text
Язык : Ukrainian
Default : Нет
Forced : Нет

Текст #3
Идентификатор : 7
Формат : UTF-8
Идентификатор кодека : S_TEXT/UTF8
Идентификатор кодека/Информация : UTF-8 Plain Text
Язык : English
Default : Нет
Forced : Нет

Текст #4
Идентификатор : 8
Формат : UTF-8
Идентификатор кодека : S_TEXT/UTF8
Идентификатор кодека/Информация : UTF-8 Plain Text
Язык : German
Default : Нет
Forced : Нет

pb.wtf



Скачать Тайная жизнь слов через торрент http://pic1.kartinco.top/images/10/q7geu.jpg Скачать фильм Тайная жизнь слов через торрент бесплантно в хорошем качестве Описание: Клочок суши посреди моря. На нефтяной вышке, где работают только мужчины, произошел несчастный случай. Одинокая загадочная ... 10 10 5
Торрент: Зарегистрирован [2015-09-08 17:17] · скачан: 12 раз
Статус: √ проверено
Размер: 5.29 GB
Как cкачать? Как скачать Тайная жизнь слов через торрент | qTorrent

Отключить всю рекламу на сайте

08-09-2015 19:12 Тайная жизнь слов Скачать торрент  

Bolala,Поправил оформление Вашей раздачи. Рекомендую пользоваться программой Flash Release, очень удобно, сама подставляет необходимые данные и намного сокращает процесс оформления релизов.pb.wtf



22-09-2015 14:41 Тайная жизнь слов Скачать торрент  

Встаньте на раздачу, несколько дней не могу скачатьpb.wtf



    Дорогой пользователь! Огромная просьба, поблагодарите релизера, оцените раздачу и оставьте свои комментарий, если Вы скачали Тайная жизнь слов через торрент бесплатно! Внесите свою лепту в развитие PiratBit!
    Комментировать посты могут только пользователи прошедшие не сложную регистрацию
    Показать сообщения:    

    Тайная жизнь слов через торрент
    Скачать бесплатно Тайная жизнь слов
    Тайная жизнь слов скачать торрент
    Тайная жизнь слов смотреть онлайн
    Cкачать фильм Тайная жизнь слов бесплатно
    Тайная жизнь слов скачать торрент в хорошем качестве
    Тайная жизнь слов смотреть онлайн бесплатно в хорошем качестве


    Вы не можете начинать темы
    Вы не можете отвечать на сообщения
    Вы не можете редактировать свои сообщения
    Вы не можете удалять свои сообщения
    Вы не можете голосовать в опросах
    Вы не можете прикреплять файлы к сообщениям
    Вы можете скачивать файлы