2 сезон

iTunes

1 сезон

1

iTunes

iTunes

iTunes

1 сезон

RePack

30

ИГРА 18+

pack

ВАЖНО

!!Акция!!

Alien_RageХит недели

RePack

MK11
pack

Забери бонус

RePack

jed

!!Акция!!

Alien_Rage

RePack

fifa19

RePack

Assassins Creed: Odyssey

RePack

NEED FOR SPEED™ PAYBACK

4 сезон

9 сезон

Бесстыжие 9 сезон

Все сериалы

все сериалы на PB.wtf

RePack

FAR CRY 5
  

Барбекю / Barbecue (Эрик Лавэн) [2014, комедия, BDRip 720p, Дублированное- SDI media] pb.wtf

Барбекю через торрент pb.wtf

Размер: 4.5 GB | Добавлен: 5 лет 1 мес. назад | Торрент скачан:20 раз
Скачать  

08-09-2015 21:55 Барбекю Скачать торрент  


Барбекю / Barbecue


ИНФОРМАЦИЯ:
Год выпуска:2014
Страна: Франция
Жанр: комедия
Продолжительность: 01:37:33
Перевод: Дублированное- SDI media
Режиссер: Эрик Лавэн

В Ролях:


Ламбер Вильсон (Antoine Chevalier), Франк Дюбоск (Baptiste), Флоренс Форести (Olivia), Гийом де Тонкедек (Yves), Лионель Абелански (Laurent), Жером Коммандёр (Jean-Mich'), Софи Дюэз (Véronique Chevalier), Лисиан Мейс (Laure), Валери Крузе (Nathalie), Лукас Лавэн (Guillaume), Корентен Лавэн (Hugo), Стефан Де Гродт (Alexandre)

Описание:
Несмотря на то, что всю жизнь Антуан следил за своим здоровьем, на его пятидесятилетие у него случается инфаркт. Все врачи говорят, что теперь ему нужно быть более осторожным. Но ведь он и так всегда был острожным! Он решает, что ему нужна встряска, и намерен поменять свою жизнь кардинальным образом.

  • Мировая премьера:1 апреля 2014

    ТЕХ.ДАННЫЕ:
    Качество: BDRip 720p
    Формат: MKV
    Видео кодек: AVC
    Аудио кодек: AC3, DTS
    Видео: AVC, 1280x688 (1.860), 4904 kbps, 24 fps, 0,232 bpp
    Аудио №1: русский / AC3 / 2.0 / 48 kHz / 192 kbps / 16 bit ||
    Аудио №2: французский / DTS / 5.1 / 48 kHz / 1510 kbps / 24 bit
    Навигация по главам: есть


    Общее
    Уникальный идентификатор : 179990581520640116226072868640474008772 (0x8768ECD11D32C1388649F5301D800CC4)
    Полное имя : D:\Торенты\Barbeku.2014.P.BDRip.720p.mkv
    Формат : Matroska
    Версия формата : Version 4 / Version 2
    Размер файла : 4,50 Гбайт
    Продолжительность : 1 ч. 37 м.
    Общий поток : 6603 Кбит/сек
    Дата кодирования : UTC 2015-09-08 19:49:06
    Программа кодирования : mkvmerge v8.2.0 ('World of Adventure') 64bit
    Библиотека кодирования : libebml v1.3.1 + libmatroska v1.4.2

    Видео
    Идентификатор : 1
    Формат : AVC
    Формат/Информация : Advanced Video Codec
    Профиль формата : High@L4.1
    Параметр CABAC формата : Да
    Параметр ReFrames формата : 5 кадров
    Идентификатор кодека : V_MPEG4/ISO/AVC
    Продолжительность : 1 ч. 37 м.
    Битрейт : 4904 Кбит/сек
    Ширина : 1280 пикселей
    Высота : 688 пикселей
    Соотношение сторон : 1,85:1
    Режим частоты кадров : Постоянный
    Частота кадров : 24,000 кадра/сек
    Цветовое пространство : YUV
    Субдискретизация насыщенности : 4:2:0
    Битовая глубина : 8 бит
    Тип развёртки : Прогрессивная
    Бит/(Пиксели*Кадры) : 0.232
    Размер потока : 3,25 Гбайт (72%)
    Заголовок : ZEST - zest barbecue 720 - 720p
    Библиотека кодирования : x264 core 142 r2479 dd79a61
    Настройки программы : cabac=1 / ref=5 / deblock=1:0:0 / analyse=0x3:0x133 / me=umh / subme=7 / psy=1 / psy_rd=1.00:0.00 / mixed_ref=1 / me_range=16 / chroma_me=1 / trellis=1 / 8x8dct=1 / cqm=0 / deadzone=21,11 / fast_pskip=0 / chroma_qp_offset=-2 / threads=6 / lookahead_threads=1 / sliced_threads=0 / nr=0 / decimate=1 / interlaced=0 / bluray_compat=0 / constrained_intra=0 / bframes=3 / b_pyramid=2 / b_adapt=1 / b_bias=0 / direct=1 / weightb=1 / open_gop=0 / weightp=2 / keyint=240 / keyint_min=24 / scenecut=40 / intra_refresh=0 / rc_lookahead=40 / rc=2pass / mbtree=1 / bitrate=4904 / ratetol=1.0 / qcomp=0.60 / qpmin=0 / qpmax=69 / qpstep=4 / cplxblur=20.0 / qblur=0.5 / ip_ratio=1.40 / aq=1:1.00
    Язык : English
    Default : Да
    Forced : Нет

    Аудио #1
    Идентификатор : 2
    Формат : AC-3
    Формат/Информация : Audio Coding 3
    Расширение режима : CM (complete main)
    Параметр Endianness формата : Big
    Идентификатор кодека : A_AC3
    Продолжительность : 1 ч. 37 м.
    Вид битрейта : Постоянный
    Битрейт : 192 Кбит/сек
    Каналы : 2 канала
    Расположение каналов : Front: L R
    Частота : 48,0 КГц
    Битовая глубина : 16 бит
    Метод сжатия : С потерями
    Размер потока : 134 Мбайт (3%)
    Язык : Russian
    Default : Да
    Forced : Да

    Аудио #2
    Идентификатор : 3
    Формат : DTS
    Формат/Информация : Digital Theater Systems
    Режим : 16
    Параметр Endianness формата : Big
    Идентификатор кодека : A_DTS
    Продолжительность : 1 ч. 37 м.
    Вид битрейта : Постоянный
    Битрейт : 1509 Кбит/сек
    Каналы : 6 каналов
    Расположение каналов : Front: L C R, Side: L R, LFE
    Частота : 48,0 КГц
    Битовая глубина : 24 бит
    Метод сжатия : С потерями
    Размер потока : 1,03 Гбайт (23%)
    Заголовок : FR-DTS 1509Kbps
    Язык : French
    Default : Нет
    Forced : Нет

    Меню
    00:00:00.000 : en:00:00:00.000
    00:12:11.917 : en:00:12:11.917
    00:23:03.083 : en:00:23:03.083
    00:31:49.458 : en:00:31:49.458
    00:40:43.208 : en:00:40:43.208
    00:49:32.042 : en:00:49:32.042
    00:59:31.625 : en:00:59:31.625
    01:07:40.750 : en:01:07:40.750
    01:15:38.042 : en:01:15:38.042
    01:23:13.833 : en:01:23:13.833
    01:28:04.542 : en:01:28:04.542
    01:33:32.000 : en:01:33:32.000
    Скриншоты:


    © Оформление by Ворон
    pb.wtf



  • Скачать Барбекю через торрент http://pic.kartinco.top/images/6/ordi9.jpg Скачать фильм Барбекю через торрент бесплантно в хорошем качестве Описание: Несмотря на то, что всю жизнь Антуан следил за своим здоровьем, на его пятидесятилетие у него случается инфаркт. Все врачи ... 10 10 2
    Info! Золотая раздача, скачанное не засчитывается.
    Торрент: Зарегистрирован [2015-09-08 21:55] · скачан: 20 раз
    Статус: √ проверено
    Размер: 4.5 GB
    Как cкачать? Как скачать Барбекю через торрент | qTorrent

    % Раздел Тема Автор DL S | L
    Фильмы 2014 [DVDrip, WEB-DLRip, HDrip] [ 1.46 GB ] Барбекю / Barbecue [2014 HDRip-AVC от sokol_ok] Dub sokol_ok Скачать
    2 | 0
    Фильмы 2014 [DVDrip, WEB-DLRip, HDrip] [ 745 MB ] Барбекю / Barbecue [2014 HDRip-AVC от sokol_ok] Dub sokol_ok Скачать
    2 | 0
    Фильмы 2014 [DVDrip, WEB-DLRip, HDrip] [ 1.46 GB ] Барбекю / Barbecue [2014 HDRip Дублированное- SDI media] Ворон Скачать
    1 | 0

    28-11-2019 20:33  

    Отключить всю рекламу на сайте

      Дорогой пользователь! Огромная просьба, поблагодарите релизера, оцените раздачу и оставьте свои комментарий, если Вы скачали Барбекю через торрент бесплатно! Внесите свою лепту в развитие PiratBit!
      Комментировать посты могут только пользователи прошедшие не сложную регистрацию
      Показать сообщения:    

      Барбекю через торрент
      Скачать бесплатно Барбекю
      Барбекю скачать торрент
      Барбекю смотреть онлайн
      Cкачать фильм Барбекю бесплатно
      Барбекю скачать торрент в хорошем качестве
      Барбекю смотреть онлайн бесплатно в хорошем качестве


      Вы не можете начинать темы
      Вы не можете отвечать на сообщения
      Вы не можете редактировать свои сообщения
      Вы не можете удалять свои сообщения
      Вы не можете голосовать в опросах
      Вы не можете прикреплять файлы к сообщениям
      Вы можете скачивать файлы