Ссылка на приватное зеркало нашего сайта всего за 1$. Внимание количество ограничено!!!

2 сезон

iTunes

1 сезон

1

iTunes

iTunes

iTunes

1 сезон

RePack

30

ИГРА 18+

pack

ВАЖНО

!!Акция!!

Alien_RageХит недели

RePack

MK11
pack

Забери бонус

RePack

jed

!!Акция!!

Alien_Rage

RePack

fifa19

RePack

Assassins Creed: Odyssey

RePack

NEED FOR SPEED™ PAYBACK

4 сезон

9 сезон

Бесстыжие 9 сезон

Все сериалы

все сериалы на PB.wtf

RePack

FAR CRY 5
  

Кухня / Сезон: 5 / Серии 1-5 из 20 (Дмитрий Дьяченко , Жора Крыжовников , Антон Федотов) [2015, комедия, WEB-DL 1080p] Оригинал pb.wtf

Кухня через торрент pb.wtf

Размер: 4.59 GB | Добавлен: 5 лет 1 мес. назад | Торрент скачан:142 раза
Скачать  

09-09-2015 01:17 Кухня Скачать торрент  

Кухня
««Вкусная комедия»»

Год выпуска: 2015
Страна: Россия
Жанр: комедия
Продолжительность: 00:26:44
Перевод: Оригинал
Сезон: 5
Серии: 1-5 из 20
Режиссер: Дмитрий Дьяченко , Жора Крыжовников , Антон Федотов
В ролях: Дмитрий Назаров (Виктор Петрович Баринов, шеф-повар), Марк Богатырев (Максим Лавров), Дмитрий Нагиев (Дмитрий Владимирович, хозяин ресторана), Юлия Такшина (сестра Виктории, бывшая жена Виктора Баринова), Елена Подкаминская (Виктория Сергеевна Гончарова), Марина Могилевская (Елена Павловна Соколова, шеф-повар), Виктор Хориняк (Костя Анисимов, бармен), Никита Тарасов (Луи, кондитер-француз), Сергей Епишев (Лев Семёнович, су-шеф), Ольга Кузьмина (Настя, официантка), Сергей Лавыгин (Сеня), Анатолий Горячев (проверяющий из СЭС)
Описание:
«Во все времена еда была рядом с людьми. Она искушает, вдохновляет, восхищает, отвращает. Но человек не может без еды, а значит тот, кто создает еду, может управлять миром...». Так думал Максим Лавров, когда шел осуществлять свою мечту - устраиваться поваром в один из самых дорогих ресторанов столицы.
Мечта сбылась, вот только на деле все вышло не так вкусно. Шеф-повар ресторана Виктор Баринов - настоящая звезда гастрономического бомонда, знающая как угодить взыскательной публике. Оборотная сторона этого идеального образа - злоупотребление алкоголем, страсть к азартным играм и невыносимый характер. В гневе Баринов страшен, в загуле - неукротим.
Арт-директор Виктория Гончарова - настоящая снежная королева, карьеристка с ледяным сердцем, однако именно с ней Макс проводит ночь до того, как пойти на новую работу. А вся команда поваров только и ждет промашки новичка, чтобы от души посмеяться.

Качество: WEB-DL 1080p
Формат: MKV
Видео кодек: AVC
Аудио кодек: AC3
Видео: AVC, 1920x1080 (16:9), 5000 kbps, 25 fps, 0,096 bpp
Аудио: AC3 / 2.0 / 48 kHz / 192 kbps / 16 bit

Код:

General
Unique ID                                : 29753702514102551239067338482515246802 (0x16625ACB2EE7E86B24C8292720C4FED2)
Complete name                            : E:\торрент\Kuchnia.2015.WEB-DL.1080.Files-x\01.Kuchnia.2015.WEB-DL.1080.Files-x.mkv
Format                                   : Matroska
Format version                           : Version 2
File size                                : 1 004 MiB
Duration                                 : 26mn 44s
Overall bit rate                         : 5 246 Kbps
Writing application                      : Lavf54.63.104
Writing library                          : Lavf54.63.104

Video
ID                                       : 1
Format                                   : AVC
Format/Info                              : Advanced Video Codec
Format profile                           : High@L4.0
Format settings, CABAC                   : Yes
Format settings, ReFrames                : 4 frames
Codec ID                                 : V_MPEG4/ISO/AVC
Duration                                 : 26mn 44s
Bit rate                                 : 5 000 Kbps
Width                                    : 1 920 pixels
Height                                   : 1 080 pixels
Display aspect ratio                     : 16:9
Frame rate mode                          : Variable
Frame rate                               : 25.000 fps
Color space                              : YUV
Chroma subsampling                       : 4:2:0
Bit depth                                : 8 bits
Scan type                                : Progressive
Bits/(Pixel*Frame)                       : 0.096
Stream size                              : 947 MiB (94%)
Writing library                          : x264 core 140
Encoding settings                        : cabac=1 / ref=3 / deblock=1:0:0 / analyse=0x3:0x113 / me=hex / subme=7 / psy=1 / psy_rd=1.00:0.00 / mixed_ref=1 / me_range=16 / chroma_me=1 / trellis=1 / 8x8dct=1 / cqm=0 / deadzone=21,11 / fast_pskip=1 / chroma_qp_offset=-2 / threads=24 / lookahead_threads=4 / sliced_threads=0 / nr=0 / decimate=1 / interlaced=0 / bluray_compat=0 / constrained_intra=0 / bframes=3 / b_pyramid=2 / b_adapt=1 / b_bias=0 / direct=1 / weightb=1 / open_gop=0 / weightp=2 / keyint=250 / keyint_min=25 / scenecut=40 / intra_refresh=0 / rc_lookahead=40 / rc=abr / mbtree=1 / bitrate=5000 / ratetol=1.0 / qcomp=0.60 / qpmin=0 / qpmax=69 / qpstep=4 / vbv_maxrate=10000 / vbv_bufsize=10000 / nal_hrd=none / filler=0 / ip_ratio=1.40 / aq=1:1.00
Default                                  : Yes
Forced                                   : No

Audio
ID                                       : 2
Format                                   : AC-3
Format/Info                              : Audio Coding 3
Mode extension                           : CM (complete main)
Codec ID                                 : A_AC3
Duration                                 : 26mn 44s
Bit rate mode                            : Constant
Bit rate                                 : 192 Kbps
Channel(s)                               : 2 channels
Channel positions                        : Front: L R
Sampling rate                            : 48.0 KHz
Bit depth                                : 16 bits
Compression mode                         : Lossy
Delay relative to video                  : 1mn 5s
Stream size                              : 36.7 MiB (4%)
Default                                  : Yes
Forced                                   : No

Код:

Внимание! Раздача ведётся путём добавления новых серий; при каждом добавлении создаётся новый торрент. Чтобы начать докачку новой серии, пользователям необходимо сделать следующее:
(1) остановить скачивание,
(2) удалить старый торрент у себя из клиента (старые серии удалять не надо),
(3) скачать новый торрент и запустить его у себя в клиенте вместо старого, при этом указать клиенту путь в старую папку куда и должно происходить скачивание новых серий.
Ваш клиент при этом должен произвести хеширование (проверку) старой папки (если не производит сам - помогите ему сделать это), и будет докачивать только те серии которых у вас ещё нет. Старые серии при этом не удаляются, а продолжают раздаваться!
Eсли вы уже удалили старые серии, то предотвратить повторную закачку старых серий можно, отжав галочку в соответсвующих местах при запуске нового торрента. По возможности, желательно не удалять старые серии как можно дольше чтобы релизёр не столько продолжал раздавать старые серии, а смог сконцентрироваться на новых.


Добавлена 5-я Серия. Просьба перехешировать торрент-файл.pb.wtf



Скачать Кухня через торрент http://i5.imageban.ru/out/2015/09/09/fa45969d7cc3c9d9ed0ea68bd72cd842.jpg Скачать фильм Кухня через торрент бесплантно в хорошем качестве Описание: «Во все времена еда была рядом с людьми. Она искушает, вдохновляет, восхищает, отвращает. Но человек не может без еды, а значит ... 10 10 10
Торрент: Зарегистрирован [2015-09-11 09:40] · скачан: 142 раз
Статус: √ проверено
Размер: 4.59 GB
Как cкачать? Как скачать Кухня через торрент | qTorrent

28-11-2019 20:33  

Отключить всю рекламу на сайте

    Дорогой пользователь! Огромная просьба, поблагодарите релизера, оцените раздачу и оставьте свои комментарий, если Вы скачали Кухня через торрент бесплатно! Внесите свою лепту в развитие PiratBit!
    Комментировать посты могут только пользователи прошедшие не сложную регистрацию
    Показать сообщения:    

    Кухня через торрент
    Скачать бесплатно Кухня
    Кухня скачать торрент
    Кухня смотреть онлайн
    Cкачать фильм Кухня бесплатно
    Кухня скачать торрент в хорошем качестве
    Кухня смотреть онлайн бесплатно в хорошем качестве


    Вы не можете начинать темы
    Вы не можете отвечать на сообщения
    Вы не можете редактировать свои сообщения
    Вы не можете удалять свои сообщения
    Вы не можете голосовать в опросах
    Вы не можете прикреплять файлы к сообщениям
    Вы можете скачивать файлы