Ссылка на приватное зеркало нашего сайта всего за 1$. Внимание количество ограничено!!!

2 сезон

iTunes

1 сезон

1

2 сезон

2 сезон

iTunes

1 сезон

RePack

30

Ultimate

ВАЖНО

ИГРА 18+

pack

RePack

MK11
pack

Забери бонус

RePack

jed

!!Акция!!

Alien_Rage

RePack

fifa19

RePack

Assassins Creed: Odyssey

RePack

NEED FOR SPEED™ PAYBACK

4 сезон

9 сезон

Бесстыжие 9 сезон

Все сериалы

все сериалы на PB.wtf

RePack

FAR CRY 5
  

Штамм / The Strain / Сезон: 2 / Серии 1-11 из 13 (Гилье́рмо дель То́ро , Кит Гордон , Дэвид Семел) [2015, ужасы, WEB-DL 1080p] MVO [NewStudio] pb.wtf

Штамм через торрент pb.wtf

Размер: 20.32 GB | Добавлен: 5 лет 2 мес. назад | Торрент скачан:15 раз
Скачать  

09-09-2015 02:31 Штамм Скачать торрент  



***** Штамм / The Strain *****

Информация о фильме:

Название: Штамм

Оригинальное название: The Strain

Год выхода: 2015

Жанр: Ужасы, фантастика, драма, вампиры, экранизация

Режиссер: Гильермо Дель Торо, Дэвид Семел, Кит Гордон

В ролях:

Дэвид Брэдли (I), Кори Столл, Миа Маэстро, Джонатан Хайд, Энн Бетанкорт, Бен Хайленд, Николай Вич, Педро Мигель Арсе, Дрю Нельсон, Джо Веркилло, Джим Уотсон, Алекс Пэкстон, Джонатан Поттс, Рихард Заммель, Шон Эстин, Дэррин Бэйкер, Натали Браун, Дональд Бурда, Кевин Дюран, Хавьер Ботет, Реджина Кинг

Описание фильма:

Штамм — выделенная культура определенного вируса. Как правило, известные науке штаммы вирусов губительно влияют на своего носителя, некоторые из них могут быть смертельными для человека. Однако ни один известный штамм в мире не изменяет генетический код самого носителя. Во всяком случае, так было до сих пор. Всё начинается с того момента, как в Нью-Йорк прибывает самолет с кучей трупов на борту. Впрочем, уже скоро эти трупы, зараженные неизвестным штаммом, оживают, превращаясь в ужасных монстров — кровососущих тварей.

Страна: США, Mirada

Продолжительность: ~ 00:58:00

Перевод: Профессиональный (многоголосый, закадровый) - [NewStudio]



Информация о файле:

Качество: WEB-DL (1080p)

Кодек: AVC

Формат: MKV

Аудио кодек: AC3

Видео: AVC, 1920x1080 (16:9), 23.976 fps, 4 822 Kbps (0.097 bit/pixel)

Аудио RU: AC-3, 48.0 KHz, 6 ch, 384 Kbps, CBR (Russian)

Аудио EN: AC-3, 48.0 KHz, 6 ch, 384 Kbps, CBR (English)

Общее
Уникальный идентификатор : 204270785050955892970182158221553184774 (0x99AD1F467CF18B45BEA2C1131A003006)
Полное имя : D:\Торенты\Кино\The.Strain.s02.WEBDL.1080p.NewStudio.TV\The.Strain.s02e01.WEBDL.1080p.NewStudio.TV.mkv
Формат : Matroska
Версия формата : Version 2
Размер файла : 2,32 Гбайт
Продолжительность : 58 м.
Общий поток : 5704 Кбит/сек
Дата кодирования : UTC 2015-07-14 16:47:51
Программа кодирования : mkvmerge v2.9.9 ('Tutu') built on Nov 25 2009 21:13:32
Библиотека кодирования : libebml v0.7.9 + libmatroska v0.8.1

Видео
Идентификатор : 1
Формат : AVC
Формат/Информация : Advanced Video Codec
Профиль формата : High@L4.0
Параметр CABAC формата : Да
Параметр ReFrames формата : 4 кадра
Идентификатор кодека : V_MPEG4/ISO/AVC
Продолжительность : 58 м.
Битрейт : 4822 Кбит/сек
Ширина : 1920 пикселей
Высота : 1080 пикселей
Соотношение сторон : 16:9
Режим частоты кадров : Постоянный
Частота кадров : 23,976 кадра/сек
Цветовое пространство : YUV
Субдискретизация насыщенности : 4:2:0
Битовая глубина : 8 бит
Тип развёртки : Прогрессивная
Бит/(Пиксели*Кадры) : 0.097
Размер потока : 1,96 Гбайт (85%)
Язык : English
Default : Нет
Forced : Нет
Основные цвета : BT.709
Характеристики трансфера : BT.709
Коэффициенты матрицы : BT.709
colour_range : Limited

Аудио #1
Идентификатор : 2
Формат : AC-3
Формат/Информация : Audio Coding 3
Расширение режима : CM (complete main)
Параметр Endianness формата : Big
Идентификатор кодека : A_AC3
Продолжительность : 58 м.
Вид битрейта : Постоянный
Битрейт : 384 Кбит/сек
Каналы : 6 каналов
Расположение каналов : Front: L C R, Side: L R, LFE
Частота : 48,0 КГц
Битовая глубина : 16 бит
Метод сжатия : С потерями
Размер потока : 160 Мбайт (7%)
Язык : Russian
Default : Да
Forced : Да

Аудио #2
Идентификатор : 3
Формат : AC-3
Формат/Информация : Audio Coding 3
Расширение режима : CM (complete main)
Параметр Endianness формата : Big
Идентификатор кодека : A_AC3
Продолжительность : 58 м.
Вид битрейта : Постоянный
Битрейт : 384 Кбит/сек
Каналы : 6 каналов
Расположение каналов : Front: L C R, Side: L R, LFE
Частота : 48,0 КГц
Битовая глубина : 16 бит
Метод сжатия : С потерями
Размер потока : 160 Мбайт (7%)
Язык : English
Default : Нет
Forced : Нет

Текст
Идентификатор : 4
Формат : ASS
Идентификатор кодека : S_TEXT/ASS
Идентификатор кодека/Информация : Advanced Sub Station Alpha
Метод сжатия : Без потерь
Язык : Russian
Default : Да
Forced : Да
Когда раздача ведётся путём добавления новых серий, при каждом добавлении создётся новый торрент. Чтобы начать докачку новой серии, пользователям необходимо сделать следующее:

(1) остановить скачивание,

(2) удалить старый торрент у себя из клиента (старые серии удалять не надо),

(3) скачать новый торрент и запустить его у себя в клиенте вместо старого, при этом указать клиенту путь в старую папку, куда и должно происходить скачивание новых серий.

Ваш клиент при этом должен произвести хеширование (проверку) старой папки (если не производит сам - помогите ему сделать это), и будет докачивать только те серии, которых у вас ещё нет. Старые серии при этом не удаляются, а продолжают раздаваться!

Eсли вы уже удалили старые серии, то предотвратить повторную закачку старых серий можно, отжав галочку в соответсвующих местах при запуске нового торрента. По возможности, желательно не удалять старые серии как можно дольше, чтобы релизёр не столько продолжал раздавать старые серии, а смог сконцентрироваться на новых.
pb.wtf



Скачать Штамм через торрент http://i17.fastpic.ru/big/2011/0314/c5/e8ce5f9e140116bc0b0c4cefabad1ec5.gif Скачать фильм Штамм через торрент бесплантно в хорошем качестве Описание фильма: Штамм — выделенная культура определенного вируса. Как правило, известные науке штаммы вирусов губительно влияют на ... 6.4 10 5
Info! Золотая раздача, скачанное не засчитывается.
Торрент: Зарегистрирован [2015-09-24 05:54] · скачан: 15 раз
Статус: √ проверено
Размер: 20.32 GB
Как cкачать? Как скачать Штамм через торрент | qTorrent

28-11-2019 20:33  

Отключить всю рекламу на сайте

24-09-2015 05:55 Штамм Скачать торрент  

Добавлена 11 серия (24.09.2015). Просьба перекачать торрент файл.pb.wtf



    Дорогой пользователь! Огромная просьба, поблагодарите релизера, оцените раздачу и оставьте свои комментарий, если Вы скачали Штамм через торрент бесплатно! Внесите свою лепту в развитие PiratBit!
    Комментировать посты могут только пользователи прошедшие не сложную регистрацию
    Показать сообщения:    

    Штамм через торрент
    Скачать бесплатно Штамм
    Штамм скачать торрент
    Штамм смотреть онлайн
    Cкачать фильм Штамм бесплатно
    Штамм скачать торрент в хорошем качестве
    Штамм смотреть онлайн бесплатно в хорошем качестве


    Вы не можете начинать темы
    Вы не можете отвечать на сообщения
    Вы не можете редактировать свои сообщения
    Вы не можете удалять свои сообщения
    Вы не можете голосовать в опросах
    Вы не можете прикреплять файлы к сообщениям
    Вы можете скачивать файлы