Ссылка на приватное зеркало всего за 1$. Внимание количество ограничено!!!

iTunes

iTunes

iTunes

1

iTunes

iTunes

iTunes

iTunes

iTunes

30
pack

$ от Little Big

ВАЖНО

!!Акция!!

Alien_RageХит недели

RePack

Resident Evil 21

ИГРА 18+

pack

RePack

jed

!!Акция!!

Alien_Rage

RePack

fifa19

RePack

Assassins Creed: Odyssey

RePack

NEED FOR SPEED™ PAYBACK

4 сезон

9 сезон

Бесстыжие 9 сезон

Все сериалы

все сериалы на PB.wtf

RePack

FAR CRY 5
  

Покаяние / Repentance (Филипп Кэлэнд ) [2013, ужасы, триллер, WEB-DL 1080p / iTunes] pb.wtf

Покаяние через торрент pb.wtf

Качают: 1 [ 0 KB/s ]
Размер: 3.83 GB | Добавлен: 4 года 10 мес. назад | Торрент скачан:20 раз
Скачать  

09-09-2015 02:54 Покаяние Скачать торрент  

Название: Покаяние

Оригинальное название: Repentance

Год выпуска: 2013

Жанр: Ужасы, триллер

Продолжительность: 01:34:33

Перевод: Профессиональный (многоголосый) [iTunes]

Выпущено: США, Code Black Entertainment, Forest Whitaker's Significant Productions, Tommy 2.0 LLC

Режиссер: Филипп Кэлэнд

В ролях: Форест Уитакер, Энтони Маки, Майк Эппс, Санаа Лэтэн, Николь Ари Паркер, Ариана Нил, Сэльма Пинкард, Эйвери Эдвард Ландри, Марго Свишер

Описание: Успешный писатель и духовный наставник соглашается провести сеансы терапии со сложным клиентом, зацикленным на смерти своей матери. Он даже не догадывается, что таким образом подвергает свою собственную жизнь опасности.



Качество: WEB-DL 1080p
Формат: MKV
Видео кодек: AVC
Аудио кодек: AC3
Видео: 1908x1068 (16:9), 23.976 fps, 4 910 Kbps (0.101 bit/pixel)
Аудио: Русский (AC3, 6 ch, 384 Кбит/с) / 48 kHz
Аудио: английский (AC3, 6 ch, 384 Кбит/с) / 48 kHz
Общее
Уникальный идентификатор : 179603580093198167335354410113683465109 (0x871E642C5F406D69837854ACF724A395)
Полное имя : D:\Торенты\Repentance.2014.P.WEBDL.1080p_.mkv
Формат : Matroska
Версия формата : Version 2
Размер файла : 3,83 Гбайт
Продолжительность : 1 ч. 34 м.
Общий поток : 5794 Кбит/сек
Дата кодирования : UTC 2014-11-02 23:12:30
Программа кодирования : mkvmerge v7.3.0 ('Nouages') 64bit built on Oct 22 2014 18:53:34
Библиотека кодирования : libebml v1.3.0 + libmatroska v1.4.1
Attachements : small_cover_land.jpg / cover.jpg / cover_land.jpg / small_cover.jpg

Видео
Идентификатор : 1
Формат : AVC
Формат/Информация : Advanced Video Codec
Профиль формата : High@L4.0
Параметр CABAC формата : Да
Параметр ReFrames формата : 4 кадра
Идентификатор кодека : V_MPEG4/ISO/AVC
Продолжительность : 1 ч. 34 м.
Битрейт : 4910 Кбит/сек
Ширина : 1908 пикселей
Высота : 1068 пикселей
Соотношение сторон : 16:9
Режим частоты кадров : Постоянный
Частота кадров : 23,976 кадра/сек
Цветовое пространство : YUV
Субдискретизация насыщенности : 4:2:0
Битовая глубина : 8 бит
Тип развёртки : Прогрессивная
Бит/(Пиксели*Кадры) : 0.101
Размер потока : 3,24 Гбайт (85%)
Язык : English
Default : Да
Forced : Нет
Основные цвета : BT.709
Характеристики трансфера : BT.709
Коэффициенты матрицы : BT.709
colour_range : Limited

Аудио #1
Идентификатор : 2
Формат : AC-3
Формат/Информация : Audio Coding 3
Расширение режима : CM (complete main)
Параметр Endianness формата : Big
Идентификатор кодека : A_AC3
Продолжительность : 1 ч. 34 м.
Вид битрейта : Постоянный
Битрейт : 384 Кбит/сек
Каналы : 6 каналов
Расположение каналов : Front: L C R, Side: L R, LFE
Частота : 48,0 КГц
Битовая глубина : 16 бит
Метод сжатия : С потерями
Размер потока : 260 Мбайт (7%)
Язык : Russian
Default : Да
Forced : Нет

Аудио #2
Идентификатор : 3
Формат : AC-3
Формат/Информация : Audio Coding 3
Расширение режима : CM (complete main)
Параметр Endianness формата : Big
Идентификатор кодека : A_AC3
Продолжительность : 1 ч. 34 м.
Вид битрейта : Постоянный
Битрейт : 384 Кбит/сек
Каналы : 6 каналов
Расположение каналов : Front: L C R, Side: L R, LFE
Частота : 48,0 КГц
Битовая глубина : 16 бит
Метод сжатия : С потерями
Размер потока : 260 Мбайт (7%)
Язык : English
Default : Нет
Forced : Нет

Меню
00:00:00.000 : en:Chapter 1
00:02:14.000 : en:Chapter 2
00:11:19.000 : en:Chapter 3
00:21:17.000 : en:Chapter 4
00:31:32.000 : en:Chapter 5
00:37:05.000 : en:Chapter 6
00:49:49.000 : en:Chapter 7
00:58:26.000 : en:Chapter 8
01:08:25.000 : en:Chapter 9
01:17:46.000 : en:Chapter 10
01:27:51.000 : en:Chapter 11
01:30:42.000 : en:Chapter 12
pb.wtf



Скачать Покаяние через торрент http://s018.radikal.ru/i528/1509/04/a431e0f1fcb2.png Скачать фильм Покаяние через торрент бесплантно в хорошем качестве Описание: Успешный писатель и духовный наставник соглашается провести сеансы терапии со сложным клиентом, зацикленным на смерти своей ... 10 10 2
Торрент: Зарегистрирован [2015-09-09 02:54] · скачан: 20 раз
Статус: √ проверено
Размер: 3.83 GB
Как cкачать? Как скачать Покаяние через торрент | qTorrent

% Раздел Тема Автор DL S | L
Фильмы 2013 [DVDrip, WEB-DLRip, HDrip] [ 1.37 GB ] Покаяние / Repentance [2013 WEB-DLRip многоголосый [] Ворон Скачать
1 | 0

28-11-2019 20:33  

Отключить всю рекламу на сайте

    Дорогой пользователь! Огромная просьба, поблагодарите релизера, оцените раздачу и оставьте свои комментарий, если Вы скачали Покаяние через торрент бесплатно! Внесите свою лепту в развитие PiratBit!
    Комментировать посты могут только пользователи прошедшие не сложную регистрацию
    Показать сообщения:    

    Покаяние через торрент
    Скачать бесплатно Покаяние
    Покаяние скачать торрент
    Покаяние смотреть онлайн
    Cкачать фильм Покаяние бесплатно
    Покаяние скачать торрент в хорошем качестве
    Покаяние смотреть онлайн бесплатно в хорошем качестве


    Вы не можете начинать темы
    Вы не можете отвечать на сообщения
    Вы не можете редактировать свои сообщения
    Вы не можете удалять свои сообщения
    Вы не можете голосовать в опросах
    Вы не можете прикреплять файлы к сообщениям
    Вы можете скачивать файлы