Ссылка на приватное зеркало нашего сайта всего за 1$. Внимание количество ограничено!!!

2 сезон

iTunes

1 сезон

1

iTunes

iTunes

iTunes

1 сезон

RePack

30

ИГРА 18+

pack

ВАЖНО

!!Акция!!

Alien_RageХит недели

RePack

MK11
pack

Забери бонус

RePack

jed

!!Акция!!

Alien_Rage

RePack

fifa19

RePack

Assassins Creed: Odyssey

RePack

NEED FOR SPEED™ PAYBACK

4 сезон

9 сезон

Бесстыжие 9 сезон

Все сериалы

все сериалы на PB.wtf

RePack

FAR CRY 5
  

Стены / Kirot (Дэнни Лернер) [2009 г., боевик, драма, BDRip 1080p] MVO pb.wtf

Стены через торрент pb.wtf

Размер: 7.88 GB | Добавлен: 5 лет 1 мес. назад | Торрент скачан:35 раз
Скачать  

09-09-2015 04:11 Стены Скачать торрент  

Название: Стены

Оригинальное название: Kirot

Год выпуска: 2009

Продолжительность: 01:49:05

Перевод: Профессиональный многоголосый

Субтитры: Русские, английские, иврит

Жанр: Боевик, драма, триллер

Выпущено: США, Франция, Израиль, Bleiberg Entertainment, Douek Productions, DPI, July August Productions, Keshet Broadcasting, United King Films

Режиссер: Дэнни Лернер

В ролях: Ольга Куриленко, Зохар Штраусс, Нинетт Тайеб, Лирон Лево, Рэймонд Амсалем, Лайор Хабра, Генри Давид, Владимир Фридман, Яна Гур, Шалом Микахелашвили

Описание: На окраине города, в старом жилом доме, на одном этаже живут две незнакомые друг с другом девушки. Эленор работает в магазине и мечтает выиграть в лотерею, чтобы сбежать от мужа, который жестоко издевается над ней. Галя — убивает людей по заказу мафии, чтобы расплатиться с долгами и вернуться на родину к маленькой дочке. Девушки не знакомы друг с другом, все, что их объединяет, — это смежная стена и отчаянное желание изменить свою жизнь. Они напуганы и беззащитны, но ради обретения свободы готовы идти до конца…



Качество: BDRip 1080p
Формат: MKV
Видео кодек: AVC
Аудио кодек: DTS, AC3
Видео: MPEG-4 AVC, 8177 Кбит/с, 1920x816
Аудио: Русский (DTS, 6 ch, 1510 Кбит/с) / 48 kHz
Аудио: английский (АС3, 6 ch, 448 Кбит/с) / 48 kHz
Общее
Уникальный идентификатор : 214520516550056259786484521401162879651 (0xA163260DFC8B72B5AA8CE71C874B52A3)
Полное имя : D:\Торенты\Steny.2009.x264.BDRip.1080p.mkv
Формат : Matroska
Версия формата : Version 2
Размер файла : 7,88 Гбайт
Продолжительность : 1 ч. 49 м.
Общий поток : 10,3 Мбит/сек
Название фильма : Kirot. 2009. BDRip (1080p) - Kinozal.TV-HD (YlNiAn)
Дата кодирования : UTC 2010-12-09 15:35:36
Программа кодирования : mkvmerge v4.4.0 ('Die Wiederkehr') сборка от Oct 31 2010 21:52:48
Библиотека кодирования : libebml v1.0.0 + libmatroska v1.0.0

Видео
Идентификатор : 1
Формат : AVC
Формат/Информация : Advanced Video Codec
Профиль формата : High@L4.1
Параметр CABAC формата : Да
Параметр ReFrames формата : 5 кадров
Режим смешивания : Header stripping
Идентификатор кодека : V_MPEG4/ISO/AVC
Продолжительность : 1 ч. 49 м.
Битрейт : 8177 Кбит/сек
Ширина : 1920 пикселей
Высота : 816 пикселей
Соотношение сторон : 2,35:1
Режим частоты кадров : Постоянный
Частота кадров : 23,976 кадра/сек
Цветовое пространство : YUV
Субдискретизация насыщенности : 4:2:0
Битовая глубина : 8 бит
Тип развёртки : Прогрессивная
Бит/(Пиксели*Кадры) : 0.218
Размер потока : 6,23 Гбайт (79%)
Заголовок : Kirot. 2009. BDRip (1080p)
Библиотека кодирования : x264 core 105 r1724 b02df7b
Настройки программы : cabac=1 / ref=5 / deblock=1:0:0 / analyse=0x3:0x113 / me=umh / subme=7 / psy=1 / psy_rd=1.00:0.00 / mixed_ref=1 / me_range=16 / chroma_me=1 / trellis=1 / 8x8dct=1 / cqm=0 / deadzone=21,11 / fast_pskip=0 / chroma_qp_offset=-2 / threads=12 / sliced_threads=0 / nr=0 / decimate=1 / interlaced=0 / constrained_intra=0 / bframes=3 / b_pyramid=2 / b_adapt=1 / b_bias=0 / direct=1 / weightb=1 / open_gop=0 / weightp=2 / keyint=250 / keyint_min=23 / scenecut=40 / intra_refresh=0 / rc_lookahead=40 / rc=crf / mbtree=1 / crf=20.0 / qcomp=0.60 / qpmin=10 / qpmax=51 / qpstep=4 / ip_ratio=1.40 / aq=1:1.00
Язык : English
Default : Да
Forced : Да

Аудио #1
Идентификатор : 2
Формат : DTS
Формат/Информация : Digital Theater Systems
Режим : 16
Параметр Endianness формата : Big
Режим смешивания : Header stripping
Идентификатор кодека : A_DTS
Продолжительность : 1 ч. 49 м.
Вид битрейта : Постоянный
Битрейт : 1510 Кбит/сек
Каналы : 6 каналов
Расположение каналов : Front: L C R, Side: L R, LFE
Частота : 48,0 КГц
Битовая глубина : 24 бит
Метод сжатия : С потерями
Размер потока : 1,15 Гбайт (15%)
Заголовок : MVO (DTS 5.1 1510 kbps)
Язык : Russian
Default : Да
Forced : Да

Аудио #2
Идентификатор : 3
Формат : AC-3
Формат/Информация : Audio Coding 3
Расширение режима : CM (complete main)
Параметр Endianness формата : Big
Режим смешивания : Header stripping
Идентификатор кодека : A_AC3
Продолжительность : 1 ч. 49 м.
Вид битрейта : Постоянный
Битрейт : 448 Кбит/сек
Каналы : 6 каналов
Расположение каналов : Front: L C R, Side: L R, LFE
Частота : 48,0 КГц
Битовая глубина : 16 бит
Метод сжатия : С потерями
Размер потока : 350 Мбайт (4%)
Заголовок : AC3 5.1 448 kbps
Язык : English
Default : Нет
Forced : Нет

Текст #1
Идентификатор : 4
Формат : UTF-8
Идентификатор кодека : S_TEXT/UTF8
Идентификатор кодека/Информация : UTF-8 Plain Text
Язык : Russian
Default : Да
Forced : Да

Текст #2
Идентификатор : 5
Формат : UTF-8
Идентификатор кодека : S_TEXT/UTF8
Идентификатор кодека/Информация : UTF-8 Plain Text
Язык : English
Default : Нет
Forced : Нет

Текст #3
Идентификатор : 6
Формат : UTF-8
Идентификатор кодека : S_TEXT/UTF8
Идентификатор кодека/Информация : UTF-8 Plain Text
Язык : Hebrew
Default : Нет
Forced : Нет
pb.wtf



Скачать Стены через торрент http://s020.radikal.ru/i700/1509/9f/1d39d3f1f25f.png Скачать фильм Стены через торрент бесплантно в хорошем качестве Описание: На окраине города, в старом жилом доме, на одном этаже живут две незнакомые друг с другом девушки. Эленор работает в магазине и ... 10 10 7
Торрент: Зарегистрирован [2015-09-09 04:11] · скачан: 35 раз
Статус: T временная
Размер: 7.88 GB
Как cкачать? Как скачать Стены через торрент | qTorrent

28-11-2019 20:33  

Отключить всю рекламу на сайте

09-09-2015 05:06 Стены Скачать торрент  

напуганная бабища мочит серьезных пацанов по заказу мафии, при этом совершенно беззащитна гениальноо!pb.wtf



09-09-2015 08:18 Стены Скачать торрент  

tamburetko писал(а):

напуганная бабища мочит серьезных пацанов по заказу мафии, при этом совершенно беззащитна гениальноо!

ну да просто ольга комуто дала в голивуде вот и снимается в шлакеpb.wtf



    Дорогой пользователь! Огромная просьба, поблагодарите релизера, оцените раздачу и оставьте свои комментарий, если Вы скачали Стены через торрент бесплатно! Внесите свою лепту в развитие PiratBit!
    Комментировать посты могут только пользователи прошедшие не сложную регистрацию
    Показать сообщения:    

    Стены через торрент
    Скачать бесплатно Стены
    Стены скачать торрент
    Стены смотреть онлайн
    Cкачать фильм Стены бесплатно
    Стены скачать торрент в хорошем качестве
    Стены смотреть онлайн бесплатно в хорошем качестве


    Вы не можете начинать темы
    Вы не можете отвечать на сообщения
    Вы не можете редактировать свои сообщения
    Вы не можете удалять свои сообщения
    Вы не можете голосовать в опросах
    Вы не можете прикреплять файлы к сообщениям
    Вы можете скачивать файлы