Ссылка на приватное зеркало нашего сайта всего за 1$. Внимание количество ограничено!!!

2 сезон

iTunes

1 сезон

1

iTunes

iTunes

iTunes

1 сезон

RePack

30

ИГРА 18+

pack

ВАЖНО

!!Акция!!

Alien_RageХит недели

RePack

MK11
pack

Забери бонус

RePack

jed

!!Акция!!

Alien_Rage

RePack

fifa19

RePack

Assassins Creed: Odyssey

RePack

NEED FOR SPEED™ PAYBACK

4 сезон

9 сезон

Бесстыжие 9 сезон

Все сериалы

все сериалы на PB.wtf

RePack

FAR CRY 5
  

Леденец / Hard Candy (Дэвид Слэйд) [2005, триллер, драма, криминал, BDRip 1080p] DUB pb.wtf

Леденец через торрент pb.wtf

Качают: 2 [ 0 KB/s ]
Размер: 10.71 GB | Добавлен: 5 лет 1 мес. назад | Торрент скачан:79 раз
Скачать  

09-09-2015 11:19 Леденец Скачать торрент  

Леденец / Hard Candy
««Strangers shouldn't talk to little girls»»

Год выпуска: 2005
Страна: США
Жанр: триллер, драма, криминал
Продолжительность: 01:43:44
Перевод: Дубляж
Навигация по главам: есть
Режиссер: Дэвид Слэйд
В ролях: Эллен Пейдж (Hayley Stark), Патрик Уилсон (Jeff Kohlver), Сандра О (Judy Tokuda), Одесса Рэй (Janelle Rogers), Гилберт Джон (Nighthawks Clerk)
Описание:
14-летняя «Лолита» знакомится в интернете с 32-летним успешным фотографом Джефом Коулером. Он приглашает ее к себе домой. Подозревая, что Джефф является педофилом, и, стремясь разоблачить его, она отвечает согласием...
, MPAA: R - Лицам до 17 лет обязательно присутствие взрослого
Качество: BDRip 1080p
Формат: MKV
Видео кодек: AVC
Аудио кодек: AC3
Видео: AVC, 1896x816 (2.35:1), 13210 kbps, 23,976 fps, 0,356 bpp
Аудио №1: русский / AC3 / 5.1 / 48 kHz / 640 kbps / 16 bit ||
Аудио №2: английский / AC3 / 5.1 / 48 kHz / 640 kbps / 16 bit

Код:

General
Unique ID                   : 248390195900638357470919664136972545009 (0xBADE362C9448948982DBA0EF59A22BF1)
Complete name               : E:\торрент\Hard.Candy.2005.BDRip.1080p.D.mkv
Format                      : Matroska
Format version              : Version 4 / Version 2
File size                   : 10.7 GiB
Duration                    : 1h 43mn
Overall bit rate            : 14.8 Mbps
Movie name                  : Hard Candy (2005)
Encoded date                : UTC 2014-05-02 12:11:20
Writing application         : mkvmerge v6.9.1 ('Blue Panther') 32bit built on Apr 18 2014 18:15:44
Writing library             : libebml v1.3.0 + libmatroska v1.4.1
Attachements                : cover.jpg

Video
ID                          : 1
Format                      : AVC
Format/Info                 : Advanced Video Codec
Format profile              : High@L4.1
Format settings, CABAC      : Yes
Format settings, ReFrames   : 4 frames
Codec ID                    : V_MPEG4/ISO/AVC
Duration                    : 1h 43mn
Bit rate                    : 13.2 Mbps
Width                       : 1 896 pixels
Height                      : 816 pixels
Display aspect ratio        : 2.35:1
Frame rate mode             : Constant
Frame rate                  : 23.976 fps
Color space                 : YUV
Chroma subsampling          : 4:2:0
Bit depth                   : 8 bits
Scan type                   : Progressive
Bits/(Pixel*Frame)          : 0.356
Stream size                 : 9.57 GiB (89%)
Title                       : Hard Candy (2005)
Writing library             : x264 core 142 r2409 d6b4e63
Encoding settings           : cabac=1 / ref=4 / deblock=1:-3:-3 / analyse=0x3:0x133 / me=tesa / subme=11 / psy=1 / psy_rd=1.00:0.15 / mixed_ref=1 / me_range=48 / chroma_me=1 / trellis=2 / 8x8dct=1 / cqm=0 / deadzone=21,11 / fast_pskip=0 / chroma_qp_offset=-3 / threads=18 / lookahead_threads=3 / sliced_threads=0 / nr=0 / decimate=0 / interlaced=0 / bluray_compat=0 / constrained_intra=0 / bframes=8 / b_pyramid=2 / b_adapt=2 / b_bias=0 / direct=3 / weightb=1 / open_gop=0 / weightp=2 / keyint=250 / keyint_min=23 / scenecut=40 / intra_refresh=0 / rc=crf / mbtree=0 / crf=18.0 / qcomp=0.65 / qpmin=0 / qpmax=69 / qpstep=4 / ip_ratio=1.40 / pb_ratio=1.25 / aq=1:0.90
Language                    : English
Default                     : Yes
Forced                      : No
Color range                 : Limited
Color primaries             : BT.709

Audio #1
ID                          : 2
Format                      : AC-3
Format/Info                 : Audio Coding 3
Mode extension              : CM (complete main)
Format settings, Endianness : Big
Codec ID                    : A_AC3
Duration                    : 1h 43mn
Bit rate mode               : Constant
Bit rate                    : 640 Kbps
Channel(s)                  : 6 channels
Channel positions           : Front: L C R, Side: L R, LFE
Sampling rate               : 48.0 KHz
Compression mode            : Lossy
Stream size                 : 475 MiB (4%)
Title                       : Dub
Language                    : Russian
Default                     : Yes
Forced                      : No

Audio #2
ID                          : 3
Format                      : AC-3
Format/Info                 : Audio Coding 3
Mode extension              : CM (complete main)
Format settings, Endianness : Big
Codec ID                    : A_AC3
Duration                    : 1h 43mn
Bit rate mode               : Constant
Bit rate                    : 640 Kbps
Channel(s)                  : 6 channels
Channel positions           : Front: L C R, Side: L R, LFE
Sampling rate               : 48.0 KHz
Compression mode            : Lossy
Stream size                 : 475 MiB (4%)
Title                       : Original
Language                    : English
Default                     : No
Forced                      : No

Menu
00:00:00.000                : en:00:00:00.000
00:01:44.438                : en:00:01:44.438
00:05:15.482                : en:00:05:15.482
00:10:11.027                : en:00:10:11.027
00:14:02.633                : en:00:14:02.633
00:17:12.657                : en:00:17:12.657
00:19:53.567                : en:00:19:53.567
00:25:31.697                : en:00:25:31.697
00:29:38.276                : en:00:29:38.276
00:33:23.919                : en:00:33:23.919
00:36:44.702                : en:00:36:44.702
00:38:41.236                : en:00:38:41.236
00:43:24.018                : en:00:43:24.018
00:46:27.576                : en:00:46:27.576
00:50:32.363                : en:00:50:32.363
00:54:25.429                : en:00:54:25.429
00:59:54.257                : en:00:59:54.257
01:02:55.438                : en:01:02:55.438
01:07:46.604                : en:01:07:46.604
01:12:11.494                : en:01:12:11.494
01:16:18.783                : en:01:16:18.783
01:19:25.052                : en:01:19:25.052
01:22:01.625                : en:01:22:01.625
01:26:34.106                : en:01:26:34.106
01:30:10.363                : en:01:30:10.363
01:35:35.939                : en:01:35:35.939
01:38:16.474                : en:01:38:16.474
01:40:11.797                : en:01:40:11.797

pb.wtf



Скачать Леденец через торрент http://i6.imageban.ru/out/2015/09/09/613cd8eb1ad3bdef005792795624339a.jpg Скачать фильм Леденец через торрент бесплантно в хорошем качестве Описание: 14-летняя «Лолита» знакомится в интернете с 32-летним успешным фотографом Джефом Коулером. Он приглашает ее к себе домой. ... 8.7 10 7
Торрент: Зарегистрирован [2015-09-09 11:19] · скачан: 79 раз
Статус: √ проверено
Размер: 10.71 GB
Как cкачать? Как скачать Леденец через торрент | qTorrent

% Раздел Тема Автор DL S | L
Фильмы [HD 720p, 1080p] (Хороший звук DUB, MVO) [ 12.54 GB ] Леденец / Hard Candy [2005 BDRip 1080p by msltel] DUB AVO msltel Скачать
1 | 0
Фильмы [HD 720p, 1080p] (Хороший звук DUB, MVO) [ 4.53 GB ] Леденец / Hard Candy [2005 BDRip 720p by msltel] DUB AVO msltel Скачать
1 | 0
Фильмы (BDRip, HDrip-AVC) (48-60 fps) [ 3.37 GB ] Леденец / Hard Candy [2005 BDRip-AVC 60fps Dub] от R.G. HD-Films Tiberiumsun69 Скачать
1 | 0

28-11-2019 20:33  

Отключить всю рекламу на сайте

09-09-2015 12:42 Леденец Скачать торрент  

хороший фильм.
смотрела в двух разных переводах - два абсолютно разных фильма получается. и оба стоящие. какой здесь - не знаю. надо смотреть )
а вообще - рекомендую.pb.wtf



09-09-2015 15:41 Леденец Скачать торрент  

ха здесь снимается эта дура из Beyond Two Souls. надо глянутьpb.wtf



    Дорогой пользователь! Огромная просьба, поблагодарите релизера, оцените раздачу и оставьте свои комментарий, если Вы скачали Леденец через торрент бесплатно! Внесите свою лепту в развитие PiratBit!
    Комментировать посты могут только пользователи прошедшие не сложную регистрацию
    Показать сообщения:    

    Леденец через торрент
    Скачать бесплатно Леденец
    Леденец скачать торрент
    Леденец смотреть онлайн
    Cкачать фильм Леденец бесплатно
    Леденец скачать торрент в хорошем качестве
    Леденец смотреть онлайн бесплатно в хорошем качестве


    Вы не можете начинать темы
    Вы не можете отвечать на сообщения
    Вы не можете редактировать свои сообщения
    Вы не можете удалять свои сообщения
    Вы не можете голосовать в опросах
    Вы не можете прикреплять файлы к сообщениям
    Вы можете скачивать файлы