Ссылка на приватное зеркало нашего сайта всего за 1$. Внимание количество ограничено!!!

2 сезон

iTunes

1 сезон

1

iTunes

iTunes

iTunes

1 сезон

RePack

30

ИГРА 18+

pack

ВАЖНО

!!Акция!!

Alien_RageХит недели

RePack

MK11
pack

Забери бонус

RePack

jed

!!Акция!!

Alien_Rage

RePack

fifa19

RePack

Assassins Creed: Odyssey

RePack

NEED FOR SPEED™ PAYBACK

4 сезон

9 сезон

Бесстыжие 9 сезон

Все сериалы

все сериалы на PB.wtf

RePack

FAR CRY 5
  

Мстители: Эра Альтрона (Джосс Уидон) [2015, фантастика, боевик, приключения, BDRip 1080p, Дубляж] iTunes pb.wtf

Мстители: Эра Альтрона через торрент pb.wtf

Размер: 12.77 GB | Добавлен: 5 лет 1 мес. назад | Торрент скачан:1025 раз
Скачать  

09-09-2015 17:37 Мстители: Эра Альтрона Скачать торрент  


Мстители: Эра Альтрона / Avengers: Age of Ultron
««A new age begins»»

ИНФОРМАЦИЯ:
Год выпуска:2015
Страна: США
Жанр: фантастика, боевик, приключения
Продолжительность: 02:21:40
Перевод: Дубляж - [Лицензия / iTunes]
Субтитры: русские (Forced), русские (Full), английские (Full),
Режиссер: Джосс Уидон

В Ролях:


Роберт Дауни мл. (Tony Stark / Iron Man), Крис Хемсворт (Thor), Крис Эванс (Steve Rogers / Captain America), Скарлетт Йоханссон (Natasha Romanoff / Black Widow), Марк Руффало (Bruce Banner / Hulk), Джереми Реннер (Clint Barton / Hawkeye), Аарон Тейлор-Джонсон (Pietro Maximoff / Quicksilver), Элизабет Олсен (Wanda Maximoff / Scarlet Witch), Джеймс Спэйдер (Ultron), Сэмюэл Л. Джексон (Nick Fury), Коби Смолдерс (Maria Hill), Пол Беттани (Jarvis / Vision)

Описание:
Человечество на грани уничтожения. На этот раз людям угрожает Альтрон - искусственный интеллект, ранее созданный для того, чтобы защищать Землю от любых угроз. Однако, главной угрозой он посчитал человечество. Международная организация Щ. И. Т. распалась, и теперь мир не способен справиться с таким мощным врагом, потому люди вновь обращаются за помощью к Величайшим Героям Земли - Мстителям. Однако Альтрон слишком силен, и есть большая вероятность, что даже им не удастся остановить начало надвигающейся Эры Альтрона, где нет места для людей...

  • Мировая премьера:13 апреля 2015

    ТЕХ.ДАННЫЕ:
    Качество: BDRip 1080p
    Формат: MKV
    Видео кодек: AVC
    Аудио кодек: AC3, DTS
    Видео: AVC, 1920x800 (2.40:1), 8888 kbps, 23,976 fps, 0,241 bpp
    Аудио №1: русский / AC3 / 5.1 / 48 kHz / 384 kbps / 16 bit ||
    Аудио №2: украинский / AC3 / 5.1 / 48 kHz / 640 kbps / 16 bit
    Аудио №3: украинский / DTS / 5.1 / 48 kHz / 1510 kbps / 24 bit
    Аудио №4: английский / DTS / 5.1 / 48 kHz / 1510 kbps / 24 bit
    Навигация по главам: есть


    General
    Unique ID : 251852065493386835386218508886941823289 (0xBD78F185DECCF775A55DE1FE1D16F139)
    Complete name : D:\Торенты\Avengers.Age.Of.Ultron.2015.x264.BDRip.(1080p).ExKinoRay.mkv
    Format : Matroska
    Format version : Version 2
    File size : 12.8 GiB
    Duration : 2h 21mn
    Overall bit rate : 12.9 Mbps
    Movie name : Мстители: Эра Альтрона.2015.Rip by: ollan
    Encoded date : UTC 2015-09-09 06:24:20
    Writing application : mkvmerge v5.6.0 ('Kenya Kane') built on May 27 2012 16:44:04
    Writing library : libebml v1.2.3 + libmatroska v1.3.0

    Video
    ID : 1
    Format : AVC
    Format/Info : Advanced Video Codec
    Format profile : High@L4.1
    Format settings, CABAC : Yes
    Format settings, ReFrames : 5 frames
    Codec ID : V_MPEG4/ISO/AVC
    Duration : 2h 21mn
    Bit rate : 8 888 Kbps
    Width : 1 920 pixels
    Height : 800 pixels
    Display aspect ratio : 2.40:1
    Frame rate : 23.976 fps
    Color space : YUV
    Chroma subsampling : 4:2:0
    Bit depth : 8 bits
    Scan type : Progressive
    Bits/(Pixel*Frame) : 0.241
    Stream size : 8.51 GiB (67%)
    Writing library : x264 core 125 r2200 999b753
    Encoding settings : cabac=1 / ref=5 / deblock=1:-3:-3 / analyse=0x3:0x133 / me=umh / subme=11 / psy=1 / psy_rd=1.00:0.10 / mixed_ref=1 / me_range=32 / chroma_me=1 / trellis=2 / 8x8dct=1 / cqm=0 / deadzone=21,11 / fast_pskip=0 / chroma_qp_offset=-3 / threads=12 / lookahead_threads=2 / sliced_threads=0 / nr=0 / decimate=0 / interlaced=0 / bluray_compat=0 / constrained_intra=0 / bframes=9 / b_pyramid=2 / b_adapt=2 / b_bias=0 / direct=3 / weightb=1 / open_gop=0 / weightp=2 / keyint=240 / keyint_min=23 / scenecut=40 / intra_refresh=0 / rc=2pass / mbtree=0 / bitrate=8888 / ratetol=1.0 / qcomp=0.60 / qpmin=0 / qpmax=69 / qpstep=4 / cplxblur=20.0 / qblur=0.5 / ip_ratio=1.40 / pb_ratio=1.30 / aq=1:1.00
    Language : English
    Default : Yes
    Forced : No

    Audio #1
    ID : 2
    Format : AC-3
    Format/Info : Audio Coding 3
    Mode extension : CM (complete main)
    Codec ID : A_AC3
    Duration : 2h 21mn
    Bit rate mode : Constant
    Bit rate : 384 Kbps
    Channel(s) : 6 channels
    Channel positions : Front: L C R, Side: L R, LFE
    Sampling rate : 48.0 KHz
    Bit depth : 16 bits
    Compression mode : Lossy
    Stream size : 389 MiB (3%)
    Title : Дублированный (iTunes Russia)
    Language : Russian
    Default : Yes
    Forced : No

    Audio #2
    ID : 3
    Format : AC-3
    Format/Info : Audio Coding 3
    Mode extension : CM (complete main)
    Codec ID : A_AC3
    Duration : 2h 21mn
    Bit rate mode : Constant
    Bit rate : 640 Kbps
    Channel(s) : 6 channels
    Channel positions : Front: L C R, Side: L R, LFE
    Sampling rate : 48.0 KHz
    Bit depth : 16 bits
    Compression mode : Lossy
    Stream size : 649 MiB (5%)
    Title : Дублированный
    Language : Ukrainian
    Default : No
    Forced : No

    Audio #3
    ID : 4
    Format : DTS
    Format/Info : Digital Theater Systems
    Codec ID : A_DTS
    Duration : 2h 21mn
    Bit rate mode : Constant
    Bit rate : 1 510 Kbps
    Channel(s) : 6 channels
    Channel positions : Front: L C R, Side: L R, LFE
    Sampling rate : 48.0 KHz
    Bit depth : 24 bits
    Compression mode : Lossy
    Stream size : 1.49 GiB (12%)
    Title : Дублированный
    Language : Ukrainian
    Default : No
    Forced : No

    Audio #4
    ID : 5
    Format : DTS
    Format/Info : Digital Theater Systems
    Codec ID : A_DTS
    Duration : 2h 21mn
    Bit rate mode : Constant
    Bit rate : 1 510 Kbps
    Channel(s) : 6 channels
    Channel positions : Front: L C R, Side: L R, LFE
    Sampling rate : 48.0 KHz
    Bit depth : 24 bits
    Compression mode : Lossy
    Stream size : 1.49 GiB (12%)
    Language : English
    Default : No
    Forced : No

    Text #1
    ID : 6
    Format : UTF-8
    Codec ID : S_TEXT/UTF8
    Codec ID/Info : UTF-8 Plain Text
    Title : Forced
    Language : Russian
    Default : Yes
    Forced : No

    Text #2
    ID : 7
    Format : UTF-8
    Codec ID : S_TEXT/UTF8
    Codec ID/Info : UTF-8 Plain Text
    Title : Full
    Language : Russian
    Default : No
    Forced : No

    Text #3
    ID : 8
    Format : UTF-8
    Codec ID : S_TEXT/UTF8
    Codec ID/Info : UTF-8 Plain Text
    Title : Full
    Language : English
    Default : No
    Forced : No

    Menu
    Default : Yes
    Forced : No
    00:00:00.000 : en:Chapter 01
    00:12:15.192 : en:Chapter 02
    00:21:23.949 : en:Chapter 03
    00:33:01.770 : en:Chapter 04
    00:36:07.622 : en:Chapter 05
    00:42:00.768 : en:Chapter 06
    00:52:44.743 : en:Chapter 07
    00:59:01.871 : en:Chapter 08
    01:15:51.087 : en:Chapter 09
    01:27:08.597 : en:Chapter 10
    01:36:44.756 : en:Chapter 11
    01:54:35.326 : en:Chapter 12
    02:06:27.578 : en:Chapter 13
    02:11:08.025 : en:Chapter 14
    02:21:18.511 : en:Chapter 15
    Скриншоты:


    © Оформление by Ворон
    pb.wtf



  • Скачать Мстители: Эра Альтрона через торрент http://pic.kartinco.top/images/6/ordi9.jpg Скачать фильм Мстители: Эра Альтрона через торрент бесплантно в хорошем качестве Описание: Человечество на грани уничтожения. На этот раз людям угрожает Альтрон - искусственный интеллект, ранее созданный для того, чтобы ... 9.7 10 40
    Info! Золотая раздача, скачанное не засчитывается.
    Торрент: Зарегистрирован [2015-09-09 17:37] · скачан: 1 025 раз
    Статус: √ проверено
    Размер: 12.77 GB
    Как cкачать? Как скачать Мстители: Эра Альтрона через торрент | qTorrent

    % Раздел Тема Автор DL S | L
    Фильмы (HD 720p, 1080p) (48-60 fps) [ 6.73 GB ] Мстители: Эра Альтрона / Avengers: Age of Ultron [2015 BDRip - HEVC 1080p 12 bit 60 FPS] - dd2d3 Скачать
    4 | 0
    Фильмы 2015 [DVDrip, WEB-DLRip, HDrip] [ 751 MB ] Мстители: Эра Альтрона [2015 HDRip ] makarevich Скачать
    1 | 0
    3D Фильмы [ 11.74 GB ] Мстители: Эра Альтрона [2015 BDRip 1080p от Ash61 / 3D-Video / halfOU / | Ворон Скачать
    2 | 0
    Фильмы (HD 720p, 1080p) (48-60 fps) [ 9.36 GB ] Мстители: Эра Альтрона [2015 BDRip 1080p 60fps от еnvy / NNNB] DUB () еnvy Скачать
    1 | 1
    T 3D Фильмы [ 11.3 GB ] Мстители: Эра Альтрона [2015 BDRip 1080p 3D горизонтальная аноморфная стереопара ] Userman4ik Скачать
    1 | 0
    Фильмы (Blu-ray, BD-Remux, HDDVD) [ 34.13 GB ] Мстители: Эра Альтрона [2015 BD Remux ] Ворон Скачать
    1 | 0

    28-11-2019 20:33  

    Отключить всю рекламу на сайте

    14-09-2015 05:51 Мстители: Эра Альтрона Скачать торрент  

    Про че кино?pb.wtf



    14-09-2015 12:25 Мстители: Эра Альтрона Скачать торрент  

    versusrnd писал(а):

    Про че кино?

    Ты не поверишь! Про супергероев!pb.wtf



    16-09-2015 06:17 Мстители: Эра Альтрона Скачать торрент  

    versusrnd писал(а):

    Про че кино?

    про наркоманов епте обкурились и херню несут на самом деле)))))pb.wtf



    16-09-2015 16:47 Мстители: Эра Альтрона Скачать торрент  

    Спецэффекты хорошие,но как для меня фильм нужно посмотреть,но один раз.pb.wtf



    19-09-2015 09:52 Мстители: Эра Альтрона Скачать торрент  

    Большое спасибо) посмотрел с удовольствием) Отличная часть, мне понравилась)pb.wtf



      Дорогой пользователь! Огромная просьба, поблагодарите релизера, оцените раздачу и оставьте свои комментарий, если Вы скачали Мстители: Эра Альтрона через торрент бесплатно! Внесите свою лепту в развитие PiratBit!
      Комментировать посты могут только пользователи прошедшие не сложную регистрацию
      Показать сообщения:    

      Мстители: Эра Альтрона через торрент
      Скачать бесплатно Мстители: Эра Альтрона
      Мстители: Эра Альтрона скачать торрент
      Мстители: Эра Альтрона смотреть онлайн
      Cкачать фильм Мстители: Эра Альтрона бесплатно
      Мстители: Эра Альтрона скачать торрент в хорошем качестве
      Мстители: Эра Альтрона смотреть онлайн бесплатно в хорошем качестве


      Вы не можете начинать темы
      Вы не можете отвечать на сообщения
      Вы не можете редактировать свои сообщения
      Вы не можете удалять свои сообщения
      Вы не можете голосовать в опросах
      Вы не можете прикреплять файлы к сообщениям
      Вы можете скачивать файлы