Ссылка на приватное зеркало всего за 1$. Внимание количество ограничено!!!

iTunes

iTunes

iTunes

1

iTunes

iTunes

iTunes

iTunes

iTunes

30
pack

$ от Little Big

ВАЖНО

!!Акция!!

Alien_RageХит недели

RePack

Resident Evil 21

ИГРА 18+

pack

RePack

jed

!!Акция!!

Alien_Rage

RePack

fifa19

RePack

Assassins Creed: Odyssey

RePack

NEED FOR SPEED™ PAYBACK

4 сезон

9 сезон

Бесстыжие 9 сезон

Все сериалы

все сериалы на PB.wtf

RePack

FAR CRY 5
  

Мир Юрского периода (Колин Треворроу) [2015, фантастика, приключения, боевик, WEB-DL 720p] DUB - Лицензия / iTunes pb.wtf

Мир Юрского периода через торрент pb.wtf

Размер: 3.85 GB | Добавлен: 4 года 10 мес. назад | Торрент скачан:2101 раз
Скачать  

09-09-2015 20:21 Мир Юрского периода Скачать торрент  


Мир Юрского периода / Jurassic World
««Парк откроется»»

Год выпуска: 2015
Страна: США, Китай
Жанр: фантастика, приключения, боевик
Продолжительность: 02:04:21
Перевод: Дубляж - [Лицензия / iTunes]
Навигация по главам: есть
Режиссер: Колин Треворроу
В ролях: Крис Пратт (Owen), Брайс Даллас Ховард (Claire), Ник Дж. Робинсон (Zach), Тай Симпкинс (Gray), Винсент Д’Онофрио (Hoskins), Ирфан Кхан (Masrani), Омар Си (Barry), Б.Д. Вонг (Dr. Henry Wu), Джейк Джонсон (Lowery), Джуди Грир (Karen), Кэти МакГрат (Zara), Лорен Лапкус (Vivian)
Описание:
Тысячи людей спешат увидеть Мир Юрского периода, но безопасное на первый взгляд развлечение может обернуться угрозой для их жизней...
, MPAA: PG-13 - Детям до 13 лет просмотр не желателен
Качество: WEB-DL 720p
Формат: MKV
Видео кодек: AVC
Аудио кодек: AC3
Видео: AVC, 1280x638 (2.006), 3959 kbps, 23,976 fps, 0,202 bpp
Аудио: русский / AC3 / 5.1 / 48 kHz / 384 kbps / 16 bit ||

Код:

General
Unique ID                   : 207990084107727417582740030092209337983 (0x9C796EE06B61B6398D57D8F31034B67F)
Complete name               : E:\торрент\M1r.Urskogo.Per1oda.2015.D.WEB-DL.720p.mkv
Format                      : Matroska
Format version              : Version 4 / Version 2
File size                   : 3.85 GiB
Duration                    : 2h 4mn
Overall bit rate            : 4 432 Kbps
Encoded date                : UTC 2015-09-09 18:10:03
Writing application         : mkvmerge v6.9.1 ('Blue Panther') 64bit built on Apr 18 2014 18:23:38
Writing library             : libebml v1.3.0 + libmatroska v1.4.1

Video
ID                          : 1
Format                      : AVC
Format/Info                 : Advanced Video Codec
Format profile              : High@L3.1
Format settings, CABAC      : No
Format settings, ReFrames   : 2 frames
Codec ID                    : V_MPEG4/ISO/AVC
Duration                    : 2h 4mn
Bit rate                    : 3 960 Kbps
Width                       : 1 280 pixels
Height                      : 638 pixels
Display aspect ratio        : 2.006
Frame rate mode             : Constant
Frame rate                  : 23.976 fps
Color space                 : YUV
Chroma subsampling          : 4:2:0
Bit depth                   : 8 bits
Scan type                   : Progressive
Bits/(Pixel*Frame)          : 0.202
Stream size                 : 3.44 GiB (89%)
Language                    : English
Default                     : Yes
Forced                      : No
Color range                 : Limited
Color primaries             : BT.709
Transfer characteristics    : BT.709
Matrix coefficients         : BT.709

Audio
ID                          : 2
Format                      : AC-3
Format/Info                 : Audio Coding 3
Mode extension              : CM (complete main)
Format settings, Endianness : Big
Codec ID                    : A_AC3
Duration                    : 2h 4mn
Bit rate mode               : Constant
Bit rate                    : 384 Kbps
Channel(s)                  : 6 channels
Channel positions           : Front: L C R, Side: L R, LFE
Sampling rate               : 48.0 KHz
Compression mode            : Lossy
Stream size                 : 342 MiB (9%)
Language                    : Russian
Default                     : Yes
Forced                      : No

Menu
00:00:00.000                : en:глава 1
00:06:59.000                : en:глава 2
00:11:01.000                : en:глава 3
00:18:28.000                : en:глава 4
00:25:34.000                : en:глава 5
00:31:20.000                : en:глава 6
00:39:23.000                : en:глава 7
00:44:07.000                : en:глава 8
00:48:57.000                : en:глава 9
00:55:51.000                : en:глава 10
01:01:21.000                : en:глава 11
01:09:50.000                : en:глава 12
01:15:25.000                : en:глава 13
01:23:51.000                : en:глава 14
01:30:14.000                : en:глава 15
01:36:45.000                : en:глава 16
01:41:15.000                : en:глава 17
01:47:36.000                : en:глава 18
01:53:06.000                : en:глава 19
01:55:36.000                : en:глава 20

pb.wtf



Скачать Мир Юрского периода через торрент http://s012.radikal.ru/i320/1507/38/773519c0494b.png Скачать фильм Мир Юрского периода через торрент бесплантно в хорошем качестве Описание: Тысячи людей спешат увидеть Мир Юрского периода, но безопасное на первый взгляд развлечение может обернуться угрозой для их ... 9.5 10 63
Info! Золотая раздача, скачанное не засчитывается.
Торрент: Зарегистрирован [2015-09-09 20:21] · скачан: 2 101 раз
Статус: √ проверено
Размер: 3.85 GB
Как cкачать? Как скачать Мир Юрского периода через торрент | qTorrent



Последний раз редактировалось: Newton5 (2015-09-10 07:44), всего редактировалось 1 раз

28-11-2019 20:33  

Отключить всю рекламу на сайте

10-09-2015 01:26 Мир Юрского периода Скачать торрент  

фильм гумно=\ ну или так себе на один разок pb.wtf



11-09-2015 08:24 Мир Юрского периода Скачать торрент  

А мне понравился. по мне дак это самый толковый перезапуск из всех ныне существующих на ряду с mad max.pb.wtf



13-09-2015 23:30 Мир Юрского периода Скачать торрент  

Dante1987 писал(а):

А мне понравился. по мне дак это самый толковый перезапуск из всех ныне существующих на ряду с mad max.

на каком там ряду с Максом этот клоачный высер? Избегайте! ну только если концовку поглядеть - Петросян постановщик!pb.wtf



19-09-2015 20:19 Мир Юрского периода Скачать торрент  

Смотреть если нравятся спец. эффекты, а так содержания 0,смысла -1.
За раздачу +10.pb.wtf



22-09-2015 15:56 Мир Юрского периода Скачать торрент  

убогие гмноpb.wtf



29-09-2015 09:58 Мир Юрского периода Скачать торрент  

фантастика, приключения, боевик ЧЕГО СЕМЕйный забыли добавить писец аа как зовут динозавров ахаххаахахахх ахахахах я упалл чушь смотрел ради е..учих ДИНО спец эфектовpb.wtf



29-09-2015 17:13 Мир Юрского периода Скачать торрент  

Игра актёров нулевая. Смотреть только ради спецэффектов.pb.wtf



04-10-2015 11:44 Мир Юрского периода Скачать торрент  

safrion писал(а):

фильм гумно=\ ну или так себе на один разок

Полностью согласен! Фильм для тех, кто вообще ни о чём не задумывается))pb.wtf



    Дорогой пользователь! Огромная просьба, поблагодарите релизера, оцените раздачу и оставьте свои комментарий, если Вы скачали Мир Юрского периода через торрент бесплатно! Внесите свою лепту в развитие PiratBit!
    Комментировать посты могут только пользователи прошедшие не сложную регистрацию
    Показать сообщения:    

    Мир Юрского периода через торрент
    Скачать бесплатно Мир Юрского периода
    Мир Юрского периода скачать торрент
    Мир Юрского периода смотреть онлайн
    Cкачать фильм Мир Юрского периода бесплатно
    Мир Юрского периода скачать торрент в хорошем качестве
    Мир Юрского периода смотреть онлайн бесплатно в хорошем качестве


    Вы не можете начинать темы
    Вы не можете отвечать на сообщения
    Вы не можете редактировать свои сообщения
    Вы не можете удалять свои сообщения
    Вы не можете голосовать в опросах
    Вы не можете прикреплять файлы к сообщениям
    Вы можете скачивать файлы