Ссылка на приватное зеркало нашего сайта всего за 1$. Внимание количество ограничено!!!

2 сезон

iTunes

1 сезон

1

iTunes

iTunes

iTunes

1 сезон

RePack

30

ИГРА 18+

pack

ВАЖНО

!!Акция!!

Alien_RageХит недели

RePack

MK11
pack

Забери бонус

RePack

jed

!!Акция!!

Alien_Rage

RePack

fifa19

RePack

Assassins Creed: Odyssey

RePack

NEED FOR SPEED™ PAYBACK

4 сезон

9 сезон

Бесстыжие 9 сезон

Все сериалы

все сериалы на PB.wtf

RePack

FAR CRY 5
  

Лагерь 139 / Camp 139 (Matthew Joseph Adams, Benjamin James) [2013, ужасы, WEBRip, Любительский (двухголосый) [den904, DeadSno] pb.wtf

Лагерь 139 через торрент pb.wtf

Размер: 1.39 GB | Добавлен: 5 лет 1 мес. назад | Торрент скачан:183 раза
Скачать  

09-09-2015 20:31 Лагерь 139 Скачать торрент  


Лагерь 139 / Camp 139


ИНФОРМАЦИЯ:
Год выпуска:2013
Страна: США
Жанр: ужасы
Продолжительность: 01:18:18
Перевод: Любительский (двухголосый) [den904, DeadSno]
Режиссер: Matthew Joseph Adams, Benjamin James

В Ролях:


Рикардо Андрес (Dr. Smith), Грег Бронсон (Sheriff Bronson), Michael Cooley (Clark), Шэйн Дин (John), Джо ДиДжиованни (Young Brandon), Lawrence J. Fuller (Mr.Johnson), Кристал Говен (Young Girl), Sarah Ludington (Stacy), Дж. Лайл (Brandon), Дэйв МаИлрит (Jerry), Фрэнк Прелл (Mike), Питер С. Ридделл (Larry)

Описание:
Две влюбленные парочки отправляются на территорию заброшенной лаборатории, где когда-то нацисты проводили бесчеловечные эксперименты над людьми...В разнузданном молодежном угаре они начинают замечать, что местность не совсем заброшенная, однако, они не предают этому значения и продолжают веселиться дальше, пока одна из парочек внезапно не исчезает без следа...

  • Мировая премьера:25 октября 2013

    ТЕХ.ДАННЫЕ:
    Качество: WEBRip
    Формат: AVI
    Видео кодек: XviD
    Аудио кодек: AC3
    Видео: XviD, 704x400 (16:9), 2234 kbps, 29,970 fps, 0,265 bpp
    Аудио: AC3 / 2.0 / 48 kHz / 192 kbps / 16 bit


    General
    Complete name : D:\Торенты\Camp.139.2013.WEBRip.avi
    Format : AVI
    Format/Info : Audio Video Interleave
    File size : 1.39 GiB
    Duration : 1h 18mn
    Overall bit rate : 2 536 Kbps
    Writing application : VirtualDubMod 1.5.10.2 (build 2540/release)
    Writing library : VirtualDubMod build 2540/release

    Video
    ID : 0
    Format : MPEG-4 Visual
    Format profile : Advanced Simple@L5
    Format settings, BVOP : 2
    Format settings, QPel : No
    Format settings, GMC : No warppoints
    Format settings, Matrix : Default (MPEG)
    Muxing mode : Packed bitstream
    Codec ID : XVID
    Codec ID/Hint : XviD
    Duration : 1h 18mn
    Bit rate : 2 235 Kbps
    Width : 704 pixels
    Height : 400 pixels
    Display aspect ratio : 16:9
    Frame rate : 29.970 fps
    Color space : YUV
    Chroma subsampling : 4:2:0
    Bit depth : 8 bits
    Scan type : Progressive
    Compression mode : Lossy
    Bits/(Pixel*Frame) : 0.265
    Stream size : 1.22 GiB (88%)
    Writing library : XviD 64

    Audio
    ID : 1
    Format : AC-3
    Format/Info : Audio Coding 3
    Mode extension : CM (complete main)
    Codec ID : 2000
    Duration : 1h 18mn
    Bit rate mode : Constant
    Bit rate : 192 Kbps
    Channel(s) : 2 channels
    Channel positions : Front: L R
    Sampling rate : 48.0 KHz
    Bit depth : 16 bits
    Compression mode : Lossy
    Stream size : 108 MiB (8%)
    Alignment : Split accross interleaves
    Скриншоты:


    © Оформление by Ворон
    pb.wtf



  • Скачать Лагерь 139 через торрент http://pic.kartinco.top/images/6/ordi9.jpg Скачать фильм Лагерь 139 через торрент бесплантно в хорошем качестве Описание: Две влюбленные парочки отправляются на территорию заброшенной лаборатории, где когда-то нацисты проводили бесчеловечные ... 10 10 4
    Торрент: Зарегистрирован [2015-09-09 20:31] · скачан: 183 раз
    Статус: T временная
    Размер: 1.39 GB
    Как cкачать? Как скачать Лагерь 139 через торрент | qTorrent

    28-11-2019 20:33  

    Отключить всю рекламу на сайте

    09-09-2015 20:37 Лагерь 139 Скачать торрент  

    да жесткачь наверно)))pb.wtf



    09-09-2015 21:20 Лагерь 139 Скачать торрент  

    тема сисек раскрыта, что не может не радовать... Хороший вообщем фильмpb.wtf



      Дорогой пользователь! Огромная просьба, поблагодарите релизера, оцените раздачу и оставьте свои комментарий, если Вы скачали Лагерь 139 через торрент бесплатно! Внесите свою лепту в развитие PiratBit!
      Комментировать посты могут только пользователи прошедшие не сложную регистрацию
      Показать сообщения:    

      Лагерь 139 через торрент
      Скачать бесплатно Лагерь 139
      Лагерь 139 скачать торрент
      Лагерь 139 смотреть онлайн
      Cкачать фильм Лагерь 139 бесплатно
      Лагерь 139 скачать торрент в хорошем качестве
      Лагерь 139 смотреть онлайн бесплатно в хорошем качестве


      Вы не можете начинать темы
      Вы не можете отвечать на сообщения
      Вы не можете редактировать свои сообщения
      Вы не можете удалять свои сообщения
      Вы не можете голосовать в опросах
      Вы не можете прикреплять файлы к сообщениям
      Вы можете скачивать файлы