Ссылка на приватное зеркало нашего сайта всего за 1$. Внимание количество ограничено!!!

2 сезон

iTunes

1 сезон

1

iTunes

iTunes

iTunes

1 сезон

RePack

30

ИГРА 18+

pack

ВАЖНО

!!Акция!!

Alien_RageХит недели

RePack

MK11
pack

Забери бонус

RePack

jed

!!Акция!!

Alien_Rage

RePack

fifa19

RePack

Assassins Creed: Odyssey

RePack

NEED FOR SPEED™ PAYBACK

4 сезон

9 сезон

Бесстыжие 9 сезон

Все сериалы

все сериалы на PB.wtf

RePack

FAR CRY 5
  

Мои ночи прекраснее ваших дней / Mes nuits sont plus belles que vos jours (Анджей Жулавский) [1989, драма, мелодрама, BDRip 1080p by msltel] MVO, 2 x AVO pb.wtf

Мои ночи прекраснее ваших дней через торрент pb.wtf

Размер: 9.27 GB | Добавлен: 5 лет 1 мес. назад | Торрент скачан:22 раза
Скачать  

10-09-2015 06:52 Мои ночи прекраснее ваших дней Скачать торрент  

Название: Мои ночи прекраснее ваших дней
Оригинальное название: Mes nuits sont plus belles que vos jours
Год выпуска: 1989
Страна: Франция
Жанр: драма, мелодрама
Продолжительность: 01:50:14
Перевод: Профессиональный многоголосый, авторский

Режиссёр: Анджей Жулавский

В ролях: Софи Марсо, Жак Дютрон, Валери Лагранж, Мириам Мезьер, Лор Киллинг, Франсуа Шометт, Сади Реббо, Салим Тальби, Жан-Пьер Эбрар, Майкл Голдман

Описание: Люка, гений-компьютерщик, страдает от неизвестной смертельной болезни, вследствие которой он теряет память. Он встречается с Бланш, молодой женщиной, которая не способна порвать со своим порочным окружением. Для них обоих начинается короткий, но насыщенный период страсти, так как они понимают, что их дни вместе сочтены...



Качество: BDRip 1080p Сравнение с исходником
Формат: MKV
Видео кодек: H.264
Аудио кодек: AC3, DTS
Видео: MPEG-4 AVC, 9719 Кбит/с, 1920х1026, 23,976 кадра/с
Аудио 1: русский, AC3, 192 kbps, 2 ch, 48 kHz [профессиональный многоголосый, Cinema Prestige]
Аудио 2: русский, AC3, 192 kbps, 2 ch, 48 kHz [авторский, Сергей Козлов]
Аудио 3: русский, AC3, 192 kbps, 2 ch, 48 kHz [авторский, Н. Дружинина]
Аудио 4: французский, DTS, 1509 kbps, 2 ch, 48 kHz [оригинал]
Субтитры: русские
Общее
Уникальный идентификатор : 217325094917918075567423756047267221147 (0xA37F4A71AAC45AFE999C075112254E9B)
Полное имя : D:VideoМои ночи прекраснее ваших дней.1989.BDRip.1080p.mkv
Формат : Matroska
Версия формата : Version 4 / Version 2
Размер файла : 9,27 Гбайт
Продолжительность : 1 ч. 50 м.
Общий поток : 12,0 Мбит/сек
Название фильма : BDRip -- STarankov
Дата кодирования : UTC 2015-09-10 01:46:56
Программа кодирования : mkvmerge v8.2.0 ('World of Adventure') 64bit
Библиотека кодирования : libebml v1.3.1 + libmatroska v1.4.2
DURATION : 01:50:14.464000000
NUMBER_OF_FRAMES : 620106
NUMBER_OF_BYTES : 1247653336
_STATISTICS_WRITING_APP : mkvmerge v8.2.0 ('World of Adventure') 64bit
_STATISTICS_WRITING_DATE_UTC : 2015-09-10 01:46:56
_STATISTICS_TAGS : BPS DURATION NUMBER_OF_FRAMES NUMBER_OF_BYTES

Видео
Идентификатор : 1
Формат : AVC
Формат/Информация : Advanced Video Codec
Профиль формата : High@L4.1
Параметр CABAC формата : Да
Параметр ReFrames формата : 4 кадра
Идентификатор кодека : V_MPEG4/ISO/AVC
Продолжительность : 1 ч. 50 м.
Битрейт : 9719 Кбит/сек
Ширина : 1920 пикселей
Высота : 1026 пикселей
Соотношение сторон : 1,85:1
Режим частоты кадров : Постоянный
Частота кадров : 23,976 кадра/сек
Цветовое пространство : YUV
Субдискретизация насыщенности : 4:2:0
Битовая глубина : 8 бит
Тип развёртки : Прогрессивная
Бит/(Пиксели*Кадры) : 0.206
Размер потока : 7,48 Гбайт (81%)
Библиотека кодирования : x264 core 146 r2538 121396c
Настройки программы : cabac=1 / ref=4 / deblock=1:-3:-3 / analyse=0x3:0x113 / me=umh / subme=10 / psy=1 / psy_rd=1.00:0.15 / mixed_ref=1 / me_range=32 / chroma_me=1 / trellis=2 / 8x8dct=1 / cqm=0 / deadzone=21,11 / fast_pskip=1 / chroma_qp_offset=-3 / threads=6 / lookahead_threads=1 / sliced_threads=0 / nr=0 / decimate=1 / interlaced=0 / bluray_compat=0 / constrained_intra=0 / bframes=10 / b_pyramid=2 / b_adapt=2 / b_bias=0 / direct=1 / weightb=1 / open_gop=0 / weightp=2 / keyint=230 / keyint_min=23 / scenecut=40 / intra_refresh=0 / rc_lookahead=40 / rc=crf / mbtree=0 / crf=18.5 / qcomp=0.60 / qpmin=0 / qpmax=69 / qpstep=4 / vbv_maxrate=40000 / vbv_bufsize=50000 / crf_max=0.0 / nal_hrd=none / filler=0 / ip_ratio=1.40 / pb_ratio=1.30 / aq=1:1.00
Язык : French
Default : Да
Forced : Нет
DURATION : 01:50:14.441000000
NUMBER_OF_FRAMES : 158588
NUMBER_OF_BYTES : 8231019699
_STATISTICS_WRITING_APP : mkvmerge v8.2.0 ('World of Adventure') 64bit
_STATISTICS_WRITING_DATE_UTC : 2015-09-10 01:46:56
_STATISTICS_TAGS : BPS DURATION NUMBER_OF_FRAMES NUMBER_OF_BYTES

Аудио #1
Идентификатор : 2
Формат : AC-3
Формат/Информация : Audio Coding 3
Расширение режима : CM (complete main)
Параметр Endianness формата : Big
Идентификатор кодека : A_AC3
Продолжительность : 1 ч. 50 м.
Вид битрейта : Постоянный
Битрейт : 192 Кбит/сек
Каналы : 2 канала
Расположение каналов : Front: L R
Частота : 48,0 КГц
Метод сжатия : С потерями
Размер потока : 151 Мбайт (2%)
Заголовок : MVO (Cinema Prestige)
Язык : Russian
Default : Да
Forced : Нет

Аудио #2
Идентификатор : 3
Формат : AC-3
Формат/Информация : Audio Coding 3
Расширение режима : CM (complete main)
Параметр Endianness формата : Big
Идентификатор кодека : A_AC3
Продолжительность : 1 ч. 50 м.
Вид битрейта : Постоянный
Битрейт : 192 Кбит/сек
Каналы : 2 канала
Расположение каналов : Front: L R
Частота : 48,0 КГц
Метод сжатия : С потерями
Размер потока : 151 Мбайт (2%)
Заголовок : AVO (Сергей Козлов)
Язык : Russian
Default : Нет
Forced : Нет

Аудио #3
Идентификатор : 4
Формат : AC-3
Формат/Информация : Audio Coding 3
Расширение режима : CM (complete main)
Параметр Endianness формата : Big
Идентификатор кодека : A_AC3
Продолжительность : 1 ч. 50 м.
Вид битрейта : Постоянный
Битрейт : 192 Кбит/сек
Каналы : 2 канала
Расположение каналов : Front: L R
Частота : 48,0 КГц
Метод сжатия : С потерями
Размер потока : 151 Мбайт (2%)
Заголовок : AVO (Н. Дружинина)
Язык : Russian
Default : Нет
Forced : Нет

Аудио #4
Идентификатор : 5
Формат : DTS
Формат/Информация : Digital Theater Systems
Режим : 16
Параметр Endianness формата : Big
Идентификатор кодека : A_DTS
Продолжительность : 1 ч. 50 м.
Вид битрейта : Постоянный
Битрейт : 1509 Кбит/сек
Каналы : 2 канала
Расположение каналов : Front: L R
Частота : 48,0 КГц
Битовая глубина : 16 бит
Метод сжатия : С потерями
Размер потока : 1,16 Гбайт (13%)
Язык : Finnish
Default : Нет
Forced : Нет

Текст
Идентификатор : 6
Формат : UTF-8
Идентификатор кодека : S_TEXT/UTF8
Идентификатор кодека/Информация : UTF-8 Plain Text
Заголовок : русский
Язык : Russian
Default : Нет
Forced : Нет
pb.wtf



Скачать Мои ночи прекраснее ваших дней через торрент http://i70.fastpic.ru/big/2015/0907/8f/59ac2b41f255580bafce51b28ac9078f.jpg Скачать фильм Мои ночи прекраснее ваших дней через торрент бесплантно в хорошем качестве Описание: Люка, гений-компьютерщик, страдает от неизвестной смертельной болезни, вследствие которой он теряет память. Он встречается с ... 10 10 6
Info! Золотая раздача, скачанное не засчитывается.
Торрент: Зарегистрирован [2015-09-10 06:52] · скачан: 22 раз
Статус: √ проверено
Размер: 9.27 GB
Как cкачать? Как скачать Мои ночи прекраснее ваших дней через торрент | qTorrent

% Раздел Тема Автор DL S | L
Фильмы [HD 720p, 1080p] (Хороший звук DUB, MVO) [ 3.93 GB ] Мои ночи прекраснее ваших дней / Mes nuits sont plus belles que vos jours [1989 BDRip 720p by msltel] MVO 2 x AVO msltel Скачать
1 | 0
Фильмы до 2000 г. [ 2.69 GB ] Мои ночи прекраснее ваших дней / Mes nuits sont plus belles que vos jours [1989 BDRip AVC by msltel] MVO 2 x AVO msltel Скачать
1 | 0

28-11-2019 20:33  

Отключить всю рекламу на сайте

10-09-2015 07:46 Мои ночи прекраснее ваших дней Скачать торрент  

отмечусь, чтоб не потерять.

msltel, спасиб за эксклюзивpb.wtf



10-09-2015 13:58 Мои ночи прекраснее ваших дней Скачать торрент  

спасибоpb.wtf



    Дорогой пользователь! Огромная просьба, поблагодарите релизера, оцените раздачу и оставьте свои комментарий, если Вы скачали Мои ночи прекраснее ваших дней через торрент бесплатно! Внесите свою лепту в развитие PiratBit!
    Комментировать посты могут только пользователи прошедшие не сложную регистрацию
    Показать сообщения:    

    Мои ночи прекраснее ваших дней через торрент
    Скачать бесплатно Мои ночи прекраснее ваших дней
    Мои ночи прекраснее ваших дней скачать торрент
    Мои ночи прекраснее ваших дней смотреть онлайн
    Cкачать фильм Мои ночи прекраснее ваших дней бесплатно
    Мои ночи прекраснее ваших дней скачать торрент в хорошем качестве
    Мои ночи прекраснее ваших дней смотреть онлайн бесплатно в хорошем качестве


    Вы не можете начинать темы
    Вы не можете отвечать на сообщения
    Вы не можете редактировать свои сообщения
    Вы не можете удалять свои сообщения
    Вы не можете голосовать в опросах
    Вы не можете прикреплять файлы к сообщениям
    Вы можете скачивать файлы