новый адрес пиратбит piratbit
Мега распродажа FORZA HORIZON 4 ULTIMATE+ВСЕ DLC+ОНЛАЙН всего за 499р. 349 руб. (супер цена). Внимание количество ограничено!!!

iTunes

1+1

iTunes

мы

iTunes

1

iTunes

Чернобыль

iTunes

Ральф против интернета

Лицензия

ПШазам

Лицензия

Игра престолов

Лицензия

30
pack

ВАЖНО

!!Акция!!

Alien_RageХит недели

RePack

Resident Evil 21

ИГРА 18+

pack

RePack

Metro:Exodus

!!Акция!!

Alien_Rage

RePack

fifa19

RePack

Assassins Creed: Odyssey

RePack

NEED FOR SPEED™ PAYBACK

3 сезон

9 сезон

Бесстыжие 9 сезон

Все сериалы

все сериалы на PB.wtf

RePack

FAR CRY 5
Ребята, катастрофически не хватает 1900р. для оплаты серверов за Октябрь (всвязи с блокировками трафик упал в 3 раза), 1-2р., выручайте.
  

Честь товарища (Николай Лебедев) [1953, СССР, семейный, DVDRip от AVP Studio] pb.wtf

Честь товарища через торрент pb.wtf

Размер: 1.09 GB | Добавлен: 4 года 2 мес. назад | Торрент скачан:7 раз
Скачать  

10-09-2015 08:02 Честь товарища Скачать торрент  

Честь товарища
Страна: СССР
Производство: Ленфильм

Жанр: семейный
Год выпуска: 1953
Продолжительность: 01:17:00

Перевод: Не требуется
Cубтитры: нет
Оригинальная аудиодорожка: русский

Режиссер: Николай Лебедев

В ролях:
Константин Скоробогатов, Борис Коковкин, Геннадий Мичурин, Владимир Дружников, Анатолий Чемодуров, Юрий Толубеев, Виктор Бирцев, Евгений Новиков, Лев Фричинский, Феликс Яворский, Нина Гребешкова, Василий Меркурьев, Лев Коптев, Юра Лепешкин, Борис Матюшкин...
Полный список актёров

Описание:
По мотивам повести Бориса Изюмского «Алые погоны».
О воспитании будущих офицеров Советской Армии. Новому воспитателю cуворовского училища майору Боканову (Владимир Дружников) сразу же пришлось разбираться в конфликте между воспитанником старшего курса Геннадием Пашковым и его товарищами. Самовлюбленный и эгоистичный Геннадий был заносчив, мог высмеять дружеские отношения между юношей и девушкой, мог подвести товарища. Опыт воспитателя и время меняют поведение зазнавшегося юноши, и ко времени окончания училища его друзья уверены, что Пашков станет хорошим командиром.

Источник: DVD5 R5
Качество видео: DVDRip
Формат видео: AVI
Видео кодек: XviD
Аудио кодек: AC3
Видео: 688x512 (4:3), 25 fps, XviD ~ 1825 kbps avg, 0.207 bit/pixel
Аудио: 48 kHz, Dolby Digital AC3 2.0, 192 kbps

Раздача от:
Общее
Полное имя : Chest.tovarishha.1953.DVDRip_[New-team]_by_AVP_Studio.avi
Формат : AVI
Формат/Информация : Audio Video Interleave
Размер файла : 1,09 Гбайт
Продолжительность : 1 ч. 16 м.
Общий поток : 2026 Кбит/сек
Программа кодирования : VirtualDubMod 1.5.10.3 | www.virtualdub-fr.org || (build 2550/release)
Библиотека кодирования : VirtualDubMod build 2550/release

Видео
Идентификатор : 0
Формат : MPEG-4 Visual
Профиль формата : Advanced Simple@L5
Параметр BVOP формата : 1
Параметр QPel формата : Нет
Параметр GMC формата : Без точки перехода
Параметр матрицы формата : Выборочная
Идентификатор кодека : XVID
Идентификатор кодека/Подсказка : XviD
Продолжительность : 1 ч. 16 м.
Битрейт : 1825 Кбит/сек
Ширина : 688 пикселей
Высота : 512 пикселей
Соотношение сторон : 4:3
Частота кадров : 25,000 кадров/сек
Цветовое пространство : YUV
Субдискретизация насыщенности : 4:2:0
Битовая глубина : 8 бит
Тип развёртки : Прогрессивная
Метод сжатия : С потерями
Бит/(Пиксели*Кадры) : 0.207
Размер потока : 1005 Мбайт (90%)
Библиотека кодирования : XviD 73

Аудио
Идентификатор : 1
Формат : AC-3
Формат/Информация : Audio Coding 3
Расширение режима : CM (complete main)
Параметр Endianness формата : Big
Идентификатор кодека : 2000
Продолжительность : 1 ч. 16 м.
Вид битрейта : Постоянный
Битрейт : 192 Кбит/сек
Каналы : 2 канала
Расположение каналов : Front: L R
Частота : 48,0 КГц
Метод сжатия : С потерями
Размер потока : 106 Мбайт (9%)
Выравнивание : Разделение по промежуткам
Продолжительность промежутка : 40 мс. (1,00 видеокадр)
Время предзагрузки промежутка : 500 мс
pb.wtf



Скачать Честь товарища через торрент http://s010.radikal.ru/i314/1509/71/323f440886e6.png Скачать фильм Честь товарища через торрент бесплантно в хорошем качестве Описание:По мотивам повести Бориса Изюмского «Алые погоны».О воспитании будущих офицеров Советской Армии. Новому воспитателю cуворовского ... 10 10 1
Торрент: Зарегистрирован [2015-09-10 08:02] · скачан: 7 раз
Статус: √ проверено
Размер: 1.09 GB
Как cкачать? Как скачать Честь товарища через торрент | qTorrent

% Раздел Тема Автор DL S | L
Кино СССР [ 1.09 GB ] Честь товарища [1953 СССР DVDRip-AVC от AVP Studio] AVP Studio Скачать
1 | 0
Кино СССР [ 745 MB ] Честь товарища [1953 СССР DVDRip от AVP Studio] AVP Studio Скачать
1 | 0


>> Регистрируемся здесь <<






Отзывы и комментарии о схеме читаем и пишем здесь: ---> Отзывы и комментарии о схеме

Новые благодарочки в телеграм довольных пользователей:
скриншот   скриншот   скриншот   скриншот   скриншот
    Дорогой пользователь! Огромная просьба, поблагодарите релизера, оцените раздачу и оставьте свои комментарий, если Вы скачали Честь товарища через торрент бесплатно! Внесите свою лепту в развитие PiratBit!
    Комментировать посты могут только пользователи прошедшие не сложную регистрацию
    Показать сообщения:    

    Честь товарища через торрент
    Скачать бесплатно Честь товарища
    Честь товарища скачать торрент
    Честь товарища смотреть онлайн
    Cкачать фильм Честь товарища бесплатно
    Честь товарища скачать торрент в хорошем качестве
    Честь товарища смотреть онлайн бесплатно в хорошем качестве


    Вы не можете начинать темы
    Вы не можете отвечать на сообщения
    Вы не можете редактировать свои сообщения
    Вы не можете удалять свои сообщения
    Вы не можете голосовать в опросах
    Вы не можете прикреплять файлы к сообщениям
    Вы можете скачивать файлы