новый адрес
Ссылка на приватное зеркало всего за 1$. Внимание количество ограничено!!!

iTunes

1+1

iTunes

мы

iTunes

1

iTunes

Чернобыль

iTunes

Ральф против интернета

Лицензия

ПШазам

Лицензия

Оно 2

Лицензия

30
pack

Вам бонус

ВАЖНО

!!Акция!!

Alien_RageХит недели

RePack

Resident Evil 21

ИГРА 18+

pack

RePack

jed

!!Акция!!

Alien_Rage

RePack

fifa19

RePack

Assassins Creed: Odyssey

RePack

NEED FOR SPEED™ PAYBACK

3 сезон

9 сезон

Бесстыжие 9 сезон

Все сериалы

все сериалы на PB.wtf

RePack

FAR CRY 5
Ребята, катастрофически не хватает 1900р. для оплаты серверов за Октябрь (всвязи с блокировками трафик упал в 3 раза), 1-2р., выручайте.
  

Честь товарища (Николай Лебедев) [1953, СССР, семейный, DVDRip от AVP Studio] pb.wtf

Честь товарища через торрент pb.wtf

Размер: 745 MB | Добавлен: 4 года 2 мес. назад | Торрент скачан:11 раз
Скачать  

10-09-2015 08:04 Честь товарища Скачать торрент  

Честь товарища
Страна: СССР
Производство: Ленфильм

Жанр: семейный
Год выпуска: 1953
Продолжительность: 01:17:00

Перевод: Не требуется
Cубтитры: нет
Оригинальная аудиодорожка: русский

Режиссер: Николай Лебедев

В ролях:
Константин Скоробогатов, Борис Коковкин, Геннадий Мичурин, Владимир Дружников, Анатолий Чемодуров, Юрий Толубеев, Виктор Бирцев, Евгений Новиков, Лев Фричинский, Феликс Яворский, Нина Гребешкова, Василий Меркурьев, Лев Коптев, Юра Лепешкин, Борис Матюшкин...
Полный список актёров

Описание:
По мотивам повести Бориса Изюмского «Алые погоны».
О воспитании будущих офицеров Советской Армии. Новому воспитателю cуворовского училища майору Боканову (Владимир Дружников) сразу же пришлось разбираться в конфликте между воспитанником старшего курса Геннадием Пашковым и его товарищами. Самовлюбленный и эгоистичный Геннадий был заносчив, мог высмеять дружеские отношения между юношей и девушкой, мог подвести товарища. Опыт воспитателя и время меняют поведение зазнавшегося юноши, и ко времени окончания училища его друзья уверены, что Пашков станет хорошим командиром.

Источник: DVD5 R5
Качество видео: DVDRip
Формат видео: AVI
Видео кодек: XviD
Аудио кодек: MP3
Видео: 640x480 (4:3), 25 fps, XviD ~ 1216 kbps avg, 0.158 bit/pixel
Аудио: 48 kHz, MP3 2.0, 128 kbps

Раздача от:
Общее
Полное имя : Chest.tovarishha.1953.DVDRip-745_[New-team]_by_AVP_Studio.avi
Формат : AVI
Формат/Информация : Audio Video Interleave
Размер файла : 745 Мбайт
Продолжительность : 1 ч. 16 м.
Общий поток : 1354 Кбит/сек
Программа кодирования : VirtualDubMod 1.5.10.3 | www.virtualdub-fr.org || (build 2550/release)
Библиотека кодирования : VirtualDubMod build 2550/release

Видео
Идентификатор : 0
Формат : MPEG-4 Visual
Профиль формата : Advanced Simple@L5
Параметр BVOP формата : 1
Параметр QPel формата : Нет
Параметр GMC формата : Без точки перехода
Параметр матрицы формата : Выборочная
Идентификатор кодека : XVID
Идентификатор кодека/Подсказка : XviD
Продолжительность : 1 ч. 16 м.
Битрейт : 1216 Кбит/сек
Ширина : 640 пикселей
Высота : 480 пикселей
Соотношение сторон : 4:3
Частота кадров : 25,000 кадров/сек
Цветовое пространство : YUV
Субдискретизация насыщенности : 4:2:0
Битовая глубина : 8 бит
Тип развёртки : Прогрессивная
Метод сжатия : С потерями
Бит/(Пиксели*Кадры) : 0.158
Размер потока : 670 Мбайт (90%)
Библиотека кодирования : XviD 73

Аудио
Идентификатор : 1
Формат : MPEG Audio
Версия формата : Version 1
Профиль формата : Layer 3
Идентификатор кодека : 55
Идентификатор кодека/Подсказка : MP3
Продолжительность : 1 ч. 16 м.
Вид битрейта : Постоянный
Битрейт : 128 Кбит/сек
Каналы : 2 канала
Частота : 48,0 КГц
Метод сжатия : С потерями
Размер потока : 70,5 Мбайт (9%)
Выравнивание : Соединение по промежуткам
Продолжительность промежутка : 40 мс. (1,00 видеокадр)
Время предзагрузки промежутка : 504 мс.
Библиотека кодирования : LAME3.99r
Настройки программы : -m s -V 4 -q 2 -lowpass 17 -b 128
pb.wtf



Скачать Честь товарища через торрент http://s010.radikal.ru/i314/1509/71/323f440886e6.png Скачать фильм Честь товарища через торрент бесплантно в хорошем качестве Описание:По мотивам повести Бориса Изюмского «Алые погоны».О воспитании будущих офицеров Советской Армии. Новому воспитателю cуворовского ... 6 10 1
Торрент: Зарегистрирован [2015-09-10 08:04] · скачан: 11 раз
Статус: √ проверено
Размер: 745 MB
Как cкачать? Как скачать Честь товарища через торрент | qTorrent

% Раздел Тема Автор DL S | L
Кино СССР [ 1.09 GB ] Честь товарища [1953 СССР DVDRip-AVC от AVP Studio] AVP Studio Скачать
1 | 0
Кино СССР [ 1.09 GB ] Честь товарища [1953 СССР DVDRip от AVP Studio] AVP Studio Скачать
1 | 0
    Дорогой пользователь! Огромная просьба, поблагодарите релизера, оцените раздачу и оставьте свои комментарий, если Вы скачали Честь товарища через торрент бесплатно! Внесите свою лепту в развитие PiratBit!
    Комментировать посты могут только пользователи прошедшие не сложную регистрацию
    Показать сообщения:    

    Честь товарища через торрент
    Скачать бесплатно Честь товарища
    Честь товарища скачать торрент
    Честь товарища смотреть онлайн
    Cкачать фильм Честь товарища бесплатно
    Честь товарища скачать торрент в хорошем качестве
    Честь товарища смотреть онлайн бесплатно в хорошем качестве


    Вы не можете начинать темы
    Вы не можете отвечать на сообщения
    Вы не можете редактировать свои сообщения
    Вы не можете удалять свои сообщения
    Вы не можете голосовать в опросах
    Вы не можете прикреплять файлы к сообщениям
    Вы можете скачивать файлы