Ссылка на приватное зеркало нашего сайта всего за 1$. Внимание количество ограничено!!!

2 сезон

iTunes

1 сезон

1

iTunes

iTunes

iTunes

1 сезон

RePack

30

ИГРА 18+

pack

ВАЖНО

!!Акция!!

Alien_RageХит недели

RePack

MK11
pack

Забери бонус

RePack

jed

!!Акция!!

Alien_Rage

RePack

fifa19

RePack

Assassins Creed: Odyssey

RePack

NEED FOR SPEED™ PAYBACK

4 сезон

9 сезон

Бесстыжие 9 сезон

Все сериалы

все сериалы на PB.wtf

RePack

FAR CRY 5
  

Спасатели / Saving Goola (Карл Тордж) [2014, мультфильм, WEB-DLRip, Дубляж] iTunes pb.wtf

Спасатели через торрент pb.wtf

Размер: 1.37 GB | Добавлен: 5 лет 1 мес. назад | Торрент скачан:158 раз
Скачать  

10-09-2015 20:29 Спасатели Скачать торрент  


Спасатели / Saving Goola
««Они всегда идут в обход»»

ИНФОРМАЦИЯ:
Год выпуска:2014
Страна: Китай
Жанр: мультфильм
Продолжительность: 01:20:39
Перевод: Дубляж - [Лицензия / iTunes]
Режиссер: Карл Тордж

В Ролях:

Описание:
Невероятной красоты тропический остров Гула находится в опасности: механизм, который держит остров парящим в воздухе сломан, и Гула вот-вот уйдет под воду! Харизматичным и обаятельным, но далеким от подвигов героям волей-неволей придется спасать свой остров и всех его жителей. Ироничные, веселые и безбашенные персонажи проявят настоящие чудеса храбрости, сплотившись перед лицом смертельной опасности и проявив свои лучшие качества: отчаянность, неутомимость и готовность помочь друг другу. Какие трудности им придется преодолеть и какой выход они найдут из непростой ситуации?

  • Мировая премьера:13 августа 2015

    ТЕХ.ДАННЫЕ:
    Качество: WEB-DLRip
    Формат: AVI
    Видео кодек: XviD
    Аудио кодек: AC3
    Видео: XviD, 720x400 (16:9), 1937 kbps, 24 fps, 0,280 bpp
    Аудио: AC3 / 5.1 / 48 kHz / 384 kbps / 16 bit


    General
    Complete name : D:\Торенты\7pasa3eli.2014.D.WEB-DLRip.avi
    Format : AVI
    Format/Info : Audio Video Interleave
    File size : 1.37 GiB
    Duration : 1h 20mn
    Overall bit rate : 2 426 Kbps
    Writing application : VirtualDubMod 1.5.10.3 | www.virtualdub-fr.org || (build 2550/release)
    Writing library : VirtualDubMod build 2550/release

    Video
    ID : 0
    Format : MPEG-4 Visual
    Format profile : Advanced Simple@L5
    Format settings, BVOP : 2
    Format settings, QPel : No
    Format settings, GMC : No warppoints
    Format settings, Matrix : Default (MPEG)
    Codec ID : XVID
    Codec ID/Hint : XviD
    Duration : 1h 20mn
    Bit rate : 1 937 Kbps
    Width : 720 pixels
    Height : 400 pixels
    Display aspect ratio : 16:9
    Frame rate : 24.000 fps
    Color space : YUV
    Chroma subsampling : 4:2:0
    Bit depth : 8 bits
    Scan type : Progressive
    Compression mode : Lossy
    Bits/(Pixel*Frame) : 0.280
    Stream size : 1.09 GiB (80%)
    Writing library : XviD 1.2.1 (UTC 2008-12-04)

    Audio
    ID : 1
    Format : AC-3
    Format/Info : Audio Coding 3
    Mode extension : CM (complete main)
    Codec ID : 2000
    Duration : 1h 20mn
    Bit rate mode : Constant
    Bit rate : 384 Kbps
    Channel(s) : 6 channels
    Channel positions : Front: L C R, Side: L R, LFE
    Sampling rate : 48.0 KHz
    Bit depth : 16 bits
    Compression mode : Lossy
    Stream size : 222 MiB (16%)
    Alignment : Split accross interleaves
    Скриншоты:


    © Оформление by Ворон
    pb.wtf



  • Скачать Спасатели через торрент http://pic.kartinco.top/images/6/ordi9.jpg Скачать фильм Спасатели через торрент бесплантно в хорошем качестве Описание: Невероятной красоты тропический остров Гула находится в опасности: механизм, который держит остров парящим в воздухе сломан, и ... 10 10 6
    Торрент: Зарегистрирован [2015-09-10 20:29] · скачан: 158 раз
    Статус: √ проверено
    Размер: 1.37 GB
    Как cкачать? Как скачать Спасатели через торрент | qTorrent

    % Раздел Тема Автор DL S | L
    Зарубежные Мультфильмы (WEB-DL 720p, 1080p) [ 3.1 GB ] Спасатели / Saving Goola [2014 мультфильм WEB-DL 1080p ] Ворон Скачать
    1 | 0
    Зарубежные Мультфильмы (WEB-DL 720p, 1080p) [ 2.56 GB ] Спасатели / Saving Goola [2014 мультфильм WEB-DL 720p ] Ворон Скачать
    1 | 0

    28-11-2019 20:33  

    Отключить всю рекламу на сайте

      Дорогой пользователь! Огромная просьба, поблагодарите релизера, оцените раздачу и оставьте свои комментарий, если Вы скачали Спасатели через торрент бесплатно! Внесите свою лепту в развитие PiratBit!
      Комментировать посты могут только пользователи прошедшие не сложную регистрацию
      Показать сообщения:    

      Спасатели через торрент
      Скачать бесплатно Спасатели
      Спасатели скачать торрент
      Спасатели смотреть онлайн
      Cкачать фильм Спасатели бесплатно
      Спасатели скачать торрент в хорошем качестве
      Спасатели смотреть онлайн бесплатно в хорошем качестве


      Вы не можете начинать темы
      Вы не можете отвечать на сообщения
      Вы не можете редактировать свои сообщения
      Вы не можете удалять свои сообщения
      Вы не можете голосовать в опросах
      Вы не можете прикреплять файлы к сообщениям
      Вы можете скачивать файлы