Мега распродажа FORZA HORIZON 4 ULTIMATE+ВСЕ DLC+ОНЛАЙН всего за 499р. 349 руб. (супер цена). Внимание количество ограничено!!!

Лицензия

30

iTunes

мы

iTunes

1

1 сезон

Чернобыль

1 сезон

Ральф против интернета

MVO

Покемон. Детектив Пикачу

8 сезон

Игра престолов

iTunes

1+1

ИГРА 18+

pack

ВАЖНО

!!Акция!!

Alien_RageХит недели

RePack

Resident Evil 21
pack

RePack

Metro:Exodus

!!Акция!!

Alien_Rage

RePack

fifa19

RePack

Assassins Creed: Odyssey

RePack

NEED FOR SPEED™ PAYBACK

3 сезон

9 сезон

Бесстыжие 9 сезон

Все сериалы

все сериалы на PB.wtf

RePack

FAR CRY 5
Ребята, катастрофически не хватает 2730р. для оплаты серверов за МАЙ (всвязи с блокировками трафик упал в 3 раза), 1-2р., выручайте.
  

Жизнь в военное время / Life During Wartime (Тодд Солондз) [2009, драма, комедия, HDRip, Профессиональный многоголосый [Лицензия] pb.wtf

Жизнь в военное время через торрент pb.wtf

Размер: 1.37 GB | Добавлен: 3 года 9 мес. назад | Торрент скачан:25 раз
Скачать  

11-09-2015 02:52 Жизнь в военное время Скачать торрент  


Жизнь в военное время / Life During Wartime
««'Счастье'... 10 лет спустя»»

ИНФОРМАЦИЯ:
Год выпуска:2009
Страна: США
Жанр: драма, комедия
Продолжительность: 01:37:31
Перевод: Профессиональный многоголосый [Лицензия]
Режиссер: Тодд Солондз

В Ролях:


Ширли Хендерсон (Joy), Майкл Кеннет Уильямс (Allen), Рослин Рафф (Waitress), Эллисон Дженни (Trish), Майкл Лернер (Harvey), Дилан Райли Снайдер (Timmy), Киран Хайндс (Bill), Рене Тейлор (Mona), Ребекка Чайлз (ведущая), Пол Рубенс (Andy), Эмма Хинз (Chloe), Шарлотта Рэмплинг (Jacqueline)

Описание:
Женщина по имени Триш по-настоящему мечтает лишь о том, чтобы ее новый муж стал хорошим приемным отцом двух ее сыновей. Ведь настоящий отец мальчиков Билл - педофил, и это не лучший пример для подражания. А когда Билл выходит из тюрьмы, перед семейством стоит сложная задача - понять, простить или забыть. Призраки прошлого преследуют членов этой большой семьи, но все они ищут одного - любви и понимания...

  • Мировая премьера:3 сентября 2009

    ТЕХ.ДАННЫЕ:
    Качество: HDRip
    Формат: AVI
    Видео кодек: XviD
    Аудио кодек: AC3
    Видео: XviD, 720x384 (1.875), 1535 kbps, 23,976 fps, 0,232 bpp
    Аудио: AC3 / 5.1 / 48 kHz / 384 kbps / 16 bit


    General
    Complete name : D:\Торенты\Life During Wartime.avi
    Format : AVI
    Format/Info : Audio Video Interleave
    File size : 1.37 GiB
    Duration : 1h 37mn
    Overall bit rate : 2 008 Kbps
    Writing application : VirtualDubMod 1.5.4.1 (build 2178/release)
    Writing library : VirtualDubMod build 2178/release

    Video
    ID : 0
    Format : MPEG-4 Visual
    Format profile : Advanced Simple@L5
    Format settings, BVOP : 2
    Format settings, QPel : No
    Format settings, GMC : No warppoints
    Format settings, Matrix : Custom
    Codec ID : XVID
    Codec ID/Hint : XviD
    Duration : 1h 37mn
    Bit rate : 1 536 Kbps
    Width : 720 pixels
    Height : 384 pixels
    Display aspect ratio : 1.875
    Frame rate : 23.976 fps
    Color space : YUV
    Chroma subsampling : 4:2:0
    Bit depth : 8 bits
    Scan type : Progressive
    Compression mode : Lossy
    Bits/(Pixel*Frame) : 0.232
    Stream size : 1.05 GiB (76%)
    Writing library : XviD 58

    Audio
    ID : 1
    Format : AC-3
    Format/Info : Audio Coding 3
    Mode extension : CM (complete main)
    Codec ID : 2000
    Duration : 1h 37mn
    Bit rate mode : Constant
    Bit rate : 384 Kbps
    Channel(s) : 6 channels
    Channel positions : Front: L C R, Side: L R, LFE
    Sampling rate : 48.0 KHz
    Bit depth : 16 bits
    Compression mode : Lossy
    Stream size : 268 MiB (19%)
    Alignment : Split accross interleaves
    Скриншоты:


    © Оформление by Ворон
    pb.wtf



  • Скачать Жизнь в военное время через торрент http://pic.kartinco.top/images/6/ordi9.jpg Скачать фильм Жизнь в военное время через торрент бесплантно в хорошем качестве Описание: Женщина по имени Триш по-настоящему мечтает лишь о том, чтобы ее новый муж стал хорошим приемным отцом двух ее сыновей. Ведь ... 10 10 1
    Торрент: Зарегистрирован [2015-09-11 02:52] · скачан: 25 раз
    Статус: √ проверено
    Размер: 1.37 GB
    Как cкачать? Как скачать Жизнь в военное время через торрент | qTorrent

    % Раздел Тема Автор DL S | L
    Арт-хаус и авторское кино [ 1.37 GB ] Жизнь в военное время / Life During Wartime [2009 HDRip лицензия] Lil Badun Скачать
    1 | 0


    >> Регистрируемся здесь <<






    Отзывы и комментарии о схеме читаем и пишем здесь: ---> Отзывы и комментарии о схеме

    Новые благодарочки в телеграм довольных пользователей:
    скриншот   скриншот   скриншот   скриншот   скриншот

    11-09-2015 21:50 Жизнь в военное время Скачать торрент  

    Цитата:

    Ведь настоящий отец мальчиков Билл - педофил, и это не лучший пример для подражания

    И тут я охел уверен этот фильм произведение искусства))скачаю его только ради того что бы посмотреть что они сделают с этим животным и сделают ли они с ним вообще что нибудь...pb.wtf



      Дорогой пользователь! Огромная просьба, поблагодарите релизера, оцените раздачу и оставьте свои комментарий, если Вы скачали Жизнь в военное время через торрент бесплатно! Внесите свою лепту в развитие PiratBit!
      Комментировать посты могут только пользователи прошедшие не сложную регистрацию
      Показать сообщения:    

      Жизнь в военное время через торрент
      Скачать бесплатно Жизнь в военное время
      Жизнь в военное время скачать торрент
      Жизнь в военное время смотреть онлайн
      Cкачать фильм Жизнь в военное время бесплатно
      Жизнь в военное время скачать торрент в хорошем качестве
      Жизнь в военное время смотреть онлайн бесплатно в хорошем качестве


      Вы не можете начинать темы
      Вы не можете отвечать на сообщения
      Вы не можете редактировать свои сообщения
      Вы не можете удалять свои сообщения
      Вы не можете голосовать в опросах
      Вы не можете прикреплять файлы к сообщениям
      Вы можете скачивать файлы