Ссылка на приватное зеркало всего за 1$. Внимание количество ограничено!!!

OK

1+1

iTunes

мы

OK

1

WEB-DLRip

Джокер

Пифагор

Ведьмак / The Witcher сериал

Лицензия

ПШазам

ОК

Оно 2

iTunes

30
pack

Вам бонус

ВАЖНО

!!Акция!!

Alien_RageХит недели

RePack

Resident Evil 21

ИГРА 18+

pack

RePack

jed

RePack

fifa19

RePack

Assassins Creed: Odyssey

RePack

NEED FOR SPEED™ PAYBACK

4 сезон

9 сезон

Бесстыжие 9 сезон

Все сериалы

все сериалы на PB.wtf

RePack

FAR CRY 5
  

Убрать из друзей / Unfriended (Леван Габриадзе) [2015, ужасы, триллер, детектив, BDRip-AVC от potroks] DUB Лицензия pb.wtf

Убрать из друзей через торрент pb.wtf

Размер: 1.46 GB | Добавлен: 4 года 4 мес. назад | Торрент скачан:196 раз
Скачать  

11-09-2015 08:57 Убрать из друзей Скачать торрент  

Убрать из друзей / Unfriended
«С такими друзьями враги не нужны»
Год выпуска: 2015
Страна: США, Россия / Universal Pictures, Базелевс Продакшн
Жанр: ужасы, триллер, детектив
Продолжительность: 01:22:31
Перевод: Дубляж [BD CEE]
Субтитры: русские (Forced), русские (Blu-Ray)
Навигация по главам: есть
Режиссер: Леван Габриадзе
В ролях:

Шелли Хенниг (Blaire Lily), Моусес Сторм (Mitch Roussel), Рени Олстэд (Jess Felton), Уилл Пельтц (Adam Sewell), Джакоб Уайсоки (Ken Smith), Кортни Хэлверсон (Val Rommel), Хезер Соссамэн (Laura Barns), Мэттью Борер (Matt), Мики Ривер (Dank Jimmy), Кэл Барнс (Rando Pauls), Криста Хартсок (Chatroulette Girl), Энтони Эфтимео (Student, в титрах не указан)
Описание: Обычный вечер после школы. К скайпу влюбленных Блэр и Митча подключаются друзья - Адам, Джес, Кен и Вэл... и кто-то седьмой с ником Billy227. Все уверены, что это компьютерный глюк, пока неизвестный не начинает им писать. Билли хочет знать, кто выложил в Сеть скандальное видео с их одноклассницей Лорой Барнс, из-за которого девушка покончила с собой. И он готов выяснить это любой ценой. Друзьям кажется, что можно просто выйти из чата, но это только кажется.

Качество: BDRip-AVC
Формат: MKV
Видео кодек: AVC
Аудио кодек: AC3
Видео: AVC, 1024x576 (16:9), 2084 kbps, 23,976 fps, 0,147 bit/pixel
Аудио: AC3 / 5.1 / 48 kHz / 448 kbps / 16 bit

Релиз группы:
Автор рипа: potroks

Код:

General
Unique ID                                : 206624977194521433950905789166628500242 (0x9B7285E8D0A79D0DBCDF0CD22101F312)
Complete name                            : N:\Ужасы\Ubrat'.iz.Druzey.2014.RUS.BDRip.x264.-HELLYWOOD.mkv
Format                                   : Matroska
Format version                           : Version 4 / Version 2
File size                                : 1.46 GiB
Duration                                 : 1h 22mn
Overall bit rate                         : 2 534 Kbps
Movie name                               : Unfriended (2014) - HELLYWOOD
Encoded date                             : UTC 2015-09-11 08:18:15
Writing application                      : mkvmerge v5.9.0 ('On The Loose') built on Dec 15 2012 16:39:58
Writing library                          : libebml v1.3.0 + libmatroska v1.4.0

Video
ID                                       : 1
Format                                   : AVC
Format/Info                              : Advanced Video Codec
Format profile                           : High@L4.1
Format settings, CABAC                   : Yes
Format settings, ReFrames                : 5 frames
Codec ID                                 : V_MPEG4/ISO/AVC
Duration                                 : 1h 22mn
Bit rate                                 : 2 084 Kbps
Width                                    : 1 024 pixels
Height                                   : 576 pixels
Display aspect ratio                     : 16:9
Frame rate                               : 23.976 fps
Color space                              : YUV
Chroma subsampling                       : 4:2:0
Bit depth                                : 8 bits
Scan type                                : Progressive
Bits/(Pixel*Frame)                       : 0.147
Stream size                              : 1.17 GiB (80%)
Title                                    : potroks
Writing library                          : x264 core 148 r2597M e86f3a1
Encoding settings                        : cabac=1 / ref=6 / deblock=1:-3:-3 / analyse=0x3:0x133 / me=umh / subme=11 / psy=1 / psy_rd=1.00:0.00 / mixed_ref=1 / me_range=56 / chroma_me=1 / trellis=2 / 8x8dct=1 / cqm=0 / deadzone=21,11 / fast_pskip=0 / chroma_qp_offset=-2 / threads=10 / lookahead_threads=1 / sliced_threads=0 / nr=0 / decimate=1 / interlaced=0 / bluray_compat=1 / constrained_intra=0 / bframes=3 / b_pyramid=1 / b_adapt=2 / b_bias=0 / direct=3 / weightb=1 / open_gop=0 / weightp=1 / keyint=250 / keyint_min=1 / scenecut=40 / intra_refresh=0 / rc=2pass / mbtree=0 / bitrate=2084 / ratetol=1.0 / qcomp=0.70 / qpmin=0 / qpmax=69 / qpstep=4 / cplxblur=20.0 / qblur=0.5 / ip_ratio=1.40 / pb_ratio=1.30 / aq=1:0.80
Language                                 : English
Default                                  : Yes
Forced                                   : No

Audio
ID                                       : 2
Format                                   : AC-3
Format/Info                              : Audio Coding 3
Mode extension                           : CM (complete main)
Codec ID                                 : A_AC3
Duration                                 : 1h 22mn
Bit rate mode                            : Constant
Bit rate                                 : 448 Kbps
Channel(s)                               : 6 channels
Channel positions                        : Front: L C R, Side: L R, LFE
Sampling rate                            : 48.0 KHz
Bit depth                                : 16 bits
Compression mode                         : Lossy
Stream size                              : 264 MiB (18%)
Title                                    : Dub | DD 5.1 @ 448 kbps - Blu-Ray CEE
Language                                 : Russian
Default                                  : Yes
Forced                                   : No

Text #1
ID                                       : 3
Format                                   : UTF-8
Codec ID                                 : S_TEXT/UTF8
Codec ID/Info                            : UTF-8 Plain Text
Title                                    : Forced
Language                                 : Russian
Default                                  : Yes
Forced                                   : No

Text #2
ID                                       : 4
Format                                   : UTF-8
Codec ID                                 : S_TEXT/UTF8
Codec ID/Info                            : UTF-8 Plain Text
Title                                    : Blu-Ray
Language                                 : Russian
Default                                  : No
Forced                                   : No

Menu
00:00:00.000                             : :(01)00:00:00:000
00:02:09.294                             : :(02)00:02:09:295
00:06:06.407                             : :(03)00:06:06:407
00:09:17.265                             : :(04)00:09:17:265
00:12:28.789                             : :(05)00:12:28:789
00:19:09.064                             : :(06)00:19:09:064
00:23:43.296                             : :(07)00:23:43:296
00:28:12.941                             : :(08)00:28:12:941
00:33:52.321                             : :(09)00:33:52:321
00:37:11.270                             : :(10)00:37:11:270
00:41:47.004                             : :(11)00:41:47:004
00:44:32.836                             : :(12)00:44:32:836
00:47:49.658                             : :(13)00:47:49:658
00:52:40.699                             : :(14)00:52:40:699
00:57:22.856                             : :(15)00:57:22:856
01:01:00.406                             : :(16)01:01:00:406
01:04:47.341                             : :(17)01:04:47:341
01:08:56.966                             : :(18)01:08:56:966
01:13:36.412                             : :(19)01:13:36:412
01:16:40.387                             : :(20)01:16:40:387
01:22:32.322                             : :(21)01:22:32:322

pb.wtf



Скачать Убрать из друзей через торрент http://i69.fastpic.ru/big/2015/0911/ef/f6c93974c6addd37195255a7f065dcef.png Скачать фильм Убрать из друзей через торрент бесплантно в хорошем качестве Описание: Обычный вечер после школы. К скайпу влюбленных Блэр и Митча подключаются друзья - Адам, Джес, Кен и Вэл... и кто-то седьмой с ... 8 10 9
Info! Золотая раздача, скачанное не засчитывается.
Торрент: Зарегистрирован [2015-09-11 08:57] · скачан: 196 раз
Статус: √ проверено
Размер: 1.46 GB
Как cкачать? Как скачать Убрать из друзей через торрент | qTorrent

% Раздел Тема Автор DL S | L
Фильмы 2015 [DVDrip, WEB-DLRip, HDrip] [ 1.46 GB ] Убрать из друзей / Unfriended [2015 BDRip] DUB Twi7ter Скачать
1 | 0
Фильмы [HD 720p, 1080p] (Хороший звук DUB, MVO) [ 3.37 GB ] Убрать из друзей / Unfriended [2015 BDRip 720p] DUB potroks Скачать
1 | 0
Фильмы 2015 [DVDrip, WEB-DLRip, HDrip] [ 1.08 GB ] Убрать из друзей / Unfriended [2015 WEB-DLRip-AVC] DUB - / Newton5 Скачать
1 | 0

28-11-2019 20:33  

Отключить всю рекламу на сайте

    Дорогой пользователь! Огромная просьба, поблагодарите релизера, оцените раздачу и оставьте свои комментарий, если Вы скачали Убрать из друзей через торрент бесплатно! Внесите свою лепту в развитие PiratBit!
    Комментировать посты могут только пользователи прошедшие не сложную регистрацию
    Показать сообщения:    

    Убрать из друзей через торрент
    Скачать бесплатно Убрать из друзей
    Убрать из друзей скачать торрент
    Убрать из друзей смотреть онлайн
    Cкачать фильм Убрать из друзей бесплатно
    Убрать из друзей скачать торрент в хорошем качестве
    Убрать из друзей смотреть онлайн бесплатно в хорошем качестве


    Вы не можете начинать темы
    Вы не можете отвечать на сообщения
    Вы не можете редактировать свои сообщения
    Вы не можете удалять свои сообщения
    Вы не можете голосовать в опросах
    Вы не можете прикреплять файлы к сообщениям
    Вы можете скачивать файлы