Ссылка на приватное зеркало всего за 1$. Внимание количество ограничено!!!

iTunes

iTunes

iTunes

1

iTunes

iTunes

iTunes

iTunes

iTunes

30
pack

Новость дня

ВАЖНО

!!Акция!!

Alien_RageХит недели

RePack

Resident Evil 21

ИГРА 18+

pack

RePack

jed

!!Акция!!

Alien_Rage

RePack

fifa19

RePack

Assassins Creed: Odyssey

RePack

NEED FOR SPEED™ PAYBACK

4 сезон

9 сезон

Бесстыжие 9 сезон

Все сериалы

все сериалы на PB.wtf

RePack

FAR CRY 5
  

Овечка Долли была злая и рано умерла (Алексей Пиманов) [2015, фантастика, комедия, приключения, WEB-DLRip] Оригинал - Лицензия / iTunes pb.wtf

Овечка Долли была злая и рано умерла через торрент pb.wtf

Размер: 1.45 GB | Добавлен: 4 года 8 мес. назад | Торрент скачан:822 раза
Скачать  

11-09-2015 09:15 Овечка Долли была злая и рано умерла Скачать торрент  

Овечка Долли была злая и рано умерла


Год выпуска: 2015
Страна: Россия
Жанр: фантастика, комедия, приключения
Продолжительность: 01:56:37
Перевод: Оригинал - [Лицензия / iTunes]
Режиссер: Алексей Пиманов
В ролях: Данила Шевченко (Никита), Юлия Савичева (Маша), Виктор Сухоруков (декан института), Роман Полянский, Виктория Маслова, Борис Щербаков, Анна Шерлинг, Юлия Пожидаева, Антон Феоктистов, Ирина Ильинская, Николай Клименко, Даниил Воробьев
Описание:
Главный герой - современный молодой человек Никита, студент МИФИ, в результате научного эксперимента попадает в прошлое, где ему предстоит встретить не только своих молодых родителей, но найти новых друзей и обрести настоящую любовь в лице студентки Маши. Эта встреча заставляет его по-другому посмотреть на свою жизнь. Однако Никита вдруг понимает, что начинает стремительно стареть и спастись он может только если вернется обратно - в свое время. Но сделать это оказалось не так просто....

Качество: WEB-DLRip
Формат: AVI
Видео кодек: XviD
Аудио кодек: AC3
Видео: XviD, 720x304 (2.35:1), 1582 kb/s, 25 fps, 0,851 bpp
Аудио: AC3 / 2.0 / 48 kHz / 192 kbps / 16 bit

Код:

General
Complete name               : E:\торрент\0ve4ka.D011y.2015.WEB-DLRip.avi
Format                      : AVI
Format/Info                 : Audio Video Interleave
File size                   : 1.45 GiB
Duration                    : 1h 56mn
Overall bit rate            : 1 784 Kbps
Writing application         : VirtualDubMod 1.5.10.2 (build 2540/release)
Writing library             : VirtualDubMod build 2540/release

Video
ID                          : 0
Format                      : MPEG-4 Visual
Format profile              : Advanced Simple@L5
Format settings, BVOP       : 2
Format settings, QPel       : No
Format settings, GMC        : No warppoints
Format settings, Matrix     : Default (MPEG)
Codec ID                    : XVID
Codec ID/Hint               : XviD
Duration                    : 1h 56mn
Bit rate                    : 1 582 Kbps
Width                       : 720 pixels
Height                      : 304 pixels
Display aspect ratio        : 2.35:1
Frame rate                  : 25.000 fps
Color space                 : YUV
Chroma subsampling          : 4:2:0
Bit depth                   : 8 bits
Scan type                   : Progressive
Compression mode            : Lossy
Bits/(Pixel*Frame)          : 0.289
Stream size                 : 1.29 GiB (89%)
Writing library             : XviD 1.2.1 (UTC 2008-12-04)

Audio
ID                          : 1
Format                      : AC-3
Format/Info                 : Audio Coding 3
Mode extension              : CM (complete main)
Format settings, Endianness : Big
Codec ID                    : 2000
Duration                    : 1h 56mn
Bit rate mode               : Constant
Bit rate                    : 192 Kbps
Channel(s)                  : 2 channels
Channel positions           : Front: L R
Sampling rate               : 48.0 KHz
Compression mode            : Lossy
Stream size                 : 160 MiB (11%)
Alignment                   : Split accross interleaves
Interleave, duration        : 40 ms (1.00 video frame)
Interleave, preload duratio : 500 ms

pb.wtf



Скачать Овечка Долли была злая и рано умерла через торрент http://i6.imageban.ru/out/2015/09/11/9367f6e46ba38e7449ed64d0aaa09e23.jpg Скачать фильм Овечка Долли была злая и рано умерла через торрент бесплантно в хорошем качестве Описание: Главный герой - современный молодой человек Никита, студент МИФИ, в результате научного эксперимента попадает в прошлое, где ему ... 9.9 10 27
Info! Золотая раздача, скачанное не засчитывается.
Торрент: Зарегистрирован [2015-09-11 09:15] · скачан: 822 раз
Статус: √ проверено
Размер: 1.45 GB
Как cкачать? Как скачать Овечка Долли была злая и рано умерла через торрент | qTorrent

% Раздел Тема Автор DL S | L
Наши новые фильмы 2015 [ 1.98 GB ] Овечка Долли была злая и рано умерла [2015 WEB-DLRip-AVC] Оригинал - / Newton5 Скачать
1 | 0
Наши фильмы (HD, WEB-DL 720p, 1080p) [ 3.94 GB ] Овечка Долли была злая и рано умерла [2015 WEB-DL 1080p] Оригинал - / Newton5 Скачать
1 | 0
Наши фильмы (HD, WEB-DL 720p, 1080p) [ 3.33 GB ] Овечка Долли была злая и рано умерла [2015 WEB-DL 720p] Оригинал - / Newton5 Скачать
1 | 0

28-11-2019 20:33  

Отключить всю рекламу на сайте

11-09-2015 10:22 Овечка Долли была злая и рано умерла Скачать торрент  

фильм о том, как важно поступать по совести в любой ситуации и ценить своих близких людей (родителей, любимых, друзей) выше карьерных и денежных интересов.pb.wtf



11-09-2015 11:07 Овечка Долли была злая и рано умерла Скачать торрент  

bibikovmast писал(а):

фильм о том, как важно поступать по совести в любой ситуации и ценить своих близких людей (родителей, любимых, друзей) выше карьерных и денежных интересов.

Золотые слова. pb.wtf



11-09-2015 12:38 Овечка Долли была злая и рано умерла Скачать торрент  

Золотой ты человек, Юрий Венедиктович!pb.wtf



11-09-2015 12:43 Овечка Долли была злая и рано умерла Скачать торрент  

О России думаешь! sarcasticpb.wtf



12-09-2015 12:59 Овечка Долли была злая и рано умерла Скачать торрент  

Столько бреда, а о фильме ни слова!pb.wtf



12-09-2015 18:16 Овечка Долли была злая и рано умерла Скачать торрент  

Bagira09 писал(а):

О России думаешь! sarcastic

отдохнуть тебе надо! sarcasticpb.wtf



    Дорогой пользователь! Огромная просьба, поблагодарите релизера, оцените раздачу и оставьте свои комментарий, если Вы скачали Овечка Долли была злая и рано умерла через торрент бесплатно! Внесите свою лепту в развитие PiratBit!
    Комментировать посты могут только пользователи прошедшие не сложную регистрацию
    Показать сообщения:    

    Овечка Долли была злая и рано умерла через торрент
    Скачать бесплатно Овечка Долли была злая и рано умерла
    Овечка Долли была злая и рано умерла скачать торрент
    Овечка Долли была злая и рано умерла смотреть онлайн
    Cкачать фильм Овечка Долли была злая и рано умерла бесплатно
    Овечка Долли была злая и рано умерла скачать торрент в хорошем качестве
    Овечка Долли была злая и рано умерла смотреть онлайн бесплатно в хорошем качестве


    Вы не можете начинать темы
    Вы не можете отвечать на сообщения
    Вы не можете редактировать свои сообщения
    Вы не можете удалять свои сообщения
    Вы не можете голосовать в опросах
    Вы не можете прикреплять файлы к сообщениям
    Вы можете скачивать файлы