новый адрес
Ссылка на приватное зеркало всего за 1$. Внимание количество ограничено!!!

iTunes

1+1

iTunes

мы

WEB-DL

1

iTunes

Чернобыль

iTunes

Ральф против интернета

Лицензия

ПШазам

Лицензия

Оно 2

Лицензия

30
pack

Вам бонус

ВАЖНО

!!Акция!!

Alien_RageХит недели

RePack

Resident Evil 21

ИГРА 18+

pack

RePack

jed

!!Акция!!

Alien_Rage

RePack

fifa19

RePack

Assassins Creed: Odyssey

RePack

NEED FOR SPEED™ PAYBACK

3 сезон

9 сезон

Бесстыжие 9 сезон

Все сериалы

все сериалы на PB.wtf

RePack

FAR CRY 5
Ребята, катастрофически не хватает 1900р. для оплаты серверов за Октябрь (всвязи с блокировками трафик упал в 3 раза), 1-2р., выручайте.
  

Секретная миссия (Михаил Ромм) [1950, СССР, драма, военный, SATRip от AVP Studio] pb.wtf

Секретная миссия через торрент pb.wtf

Размер: 745 MB | Добавлен: 4 года 3 мес. назад | Торрент скачан:16 раз
Скачать  

11-09-2015 18:02 Секретная миссия Скачать торрент  

Секретная миссия
Страна: СССР
Производство: Мосфильм

Жанр: драма, военный
Год выпуска: 1950
Продолжительность: 01:38:17

Перевод: Не требуется
Cубтитры: нет
Оригинальная аудиодорожка: русский

Режиссер: Михаил Ромм

В ролях:
Сергей Вечеслов, Николай Комиссаров, Елена Кузьмина, Василий Макаров, Алексей Грибов, Александр Чебан, Владимир Савельев, Петр Березов, Владимир Белокуров, Марк Перцовский, Александр Пелевин, Михаил Высоцкий, Павел Гайдебуров, Владимир Гардин, Николай Рыбников, Николай Тимофеев, Александр Хохлов, Лев Фенин...
Полный список актёров

Описание:
1945 год. В Берлин с секретной миссией прилетают американский сенатор и представитель ЦРУ. Они собираются договориться с главарями третьего рейха об односторонней капитуляции немецких войск на Западном фронте.
Советское командование поручает работающим в фашистском логове разведчикам Дементьеву и Глуховой выяснить цель миссии. Задание выполнено, но Мария Глухова раскрыта и погибает.
После падения Берлина Дементьев находит в условленном месте копии списков немецких агентов на Балканах, которые удалось сфотографировать советской разведчице...

Источник: DVB
Качество видео: SATRip
Формат видео: AVI
Видео кодек: XviD
Аудио кодек: MP3
Видео: 576x432 (4:3), 25 fps, XviD ~ 923 kbps avg, 0.148 bit/pixel
Аудио: 48 kHz, MP3 2.0, 128 kbps

Раздача от:
Общее
Полное имя : Sekretnaya.missiya.1950.SATRip-745_[New-team]_by_AVP_Studio.avi
Формат : AVI
Формат/Информация : Audio Video Interleave
Размер файла : 745 Мбайт
Продолжительность : 1 ч. 38 м.
Общий поток : 1060 Кбит/сек
Программа кодирования : VirtualDubMod 1.5.10.3 | www.virtualdub-fr.org || (build 2550/release)
Библиотека кодирования : VirtualDubMod build 2550/release

Видео
Идентификатор : 0
Формат : MPEG-4 Visual
Профиль формата : Advanced Simple@L5
Параметр BVOP формата : 1
Параметр QPel формата : Нет
Параметр GMC формата : Без точки перехода
Параметр матрицы формата : Выборочная
Идентификатор кодека : XVID
Идентификатор кодека/Подсказка : XviD
Продолжительность : 1 ч. 38 м.
Битрейт : 923 Кбит/сек
Ширина : 576 пикселей
Высота : 432 пикселя
Соотношение сторон : 4:3
Частота кадров : 25,000 кадров/сек
Цветовое пространство : YUV
Субдискретизация насыщенности : 4:2:0
Битовая глубина : 8 бит
Тип развёртки : Прогрессивная
Метод сжатия : С потерями
Бит/(Пиксели*Кадры) : 0.148
Размер потока : 649 Мбайт (87%)
Библиотека кодирования : XviD 73

Аудио
Идентификатор : 1
Формат : MPEG Audio
Версия формата : Version 1
Профиль формата : Layer 3
Идентификатор кодека : 55
Идентификатор кодека/Подсказка : MP3
Продолжительность : 1 ч. 38 м.
Вид битрейта : Постоянный
Битрейт : 128 Кбит/сек
Каналы : 2 канала
Частота : 48,0 КГц
Метод сжатия : С потерями
Размер потока : 90,0 Мбайт (12%)
Выравнивание : Соединение по промежуткам
Продолжительность промежутка : 40 мс. (1,00 видеокадр)
Время предзагрузки промежутка : 504 мс.
Библиотека кодирования : LAME3.99r
Настройки программы : -m s -V 4 -q 2 -lowpass 17 -b 128
pb.wtf



Скачать Секретная миссия через торрент http://s020.radikal.ru/i715/1509/90/a3c489644a41.png Скачать фильм Секретная миссия через торрент бесплантно в хорошем качестве Описание:1945 год. В Берлин с секретной миссией прилетают американский сенатор и представитель ЦРУ. Они собираются договориться с главарями ... 10 10 1
Info! Золотая раздача, скачанное не засчитывается.
Торрент: Зарегистрирован [2015-09-11 18:02] · скачан: 16 раз
Статус: √ проверено
Размер: 745 MB
Как cкачать? Как скачать Секретная миссия через торрент | qTorrent

% Раздел Тема Автор DL S | L
Кино СССР [ 1.46 GB ] Секретная миссия [1950 СССР военный SATRip-AVC от AVP Studio] AVP Studio Скачать
1 | 0
Кино СССР [ 1.46 GB ] Секретная миссия [1950 СССР военный SATRip от AVP Studio] AVP Studio Скачать
1 | 0
Документальные фильмы и телепередачи [ 504 MB ] Секретные миссии. Рука Москвы [2012 документальный IPTVRip Оригинал] кэп Скачать
1 | 0

28-11-2019 20:33  

Отключить всю рекламу на сайте

    Дорогой пользователь! Огромная просьба, поблагодарите релизера, оцените раздачу и оставьте свои комментарий, если Вы скачали Секретная миссия через торрент бесплатно! Внесите свою лепту в развитие PiratBit!
    Комментировать посты могут только пользователи прошедшие не сложную регистрацию
    Показать сообщения:    

    Секретная миссия через торрент
    Скачать бесплатно Секретная миссия
    Секретная миссия скачать торрент
    Секретная миссия смотреть онлайн
    Cкачать фильм Секретная миссия бесплатно
    Секретная миссия скачать торрент в хорошем качестве
    Секретная миссия смотреть онлайн бесплатно в хорошем качестве


    Вы не можете начинать темы
    Вы не можете отвечать на сообщения
    Вы не можете редактировать свои сообщения
    Вы не можете удалять свои сообщения
    Вы не можете голосовать в опросах
    Вы не можете прикреплять файлы к сообщениям
    Вы можете скачивать файлы