Ссылка на приватное зеркало всего за 1$. Внимание количество ограничено!!!

iTunes

iTunes

iTunes

1

iTunes

iTunes

iTunes

iTunes

iTunes

30
pack

Новость дня

ВАЖНО

!!Акция!!

Alien_RageХит недели

RePack

Resident Evil 21

ИГРА 18+

pack

RePack

jed

!!Акция!!

Alien_Rage

RePack

fifa19

RePack

Assassins Creed: Odyssey

RePack

NEED FOR SPEED™ PAYBACK

4 сезон

9 сезон

Бесстыжие 9 сезон

Все сериалы

все сериалы на PB.wtf

RePack

FAR CRY 5
  

Овечка Долли была злая и рано умерла (Алексей Пиманов) [2015, фантастика, комедия, приключения, WEB-DLRip-AVC] Оригинал - Лицензия / iTunes pb.wtf

Овечка Долли была злая и рано умерла через торрент pb.wtf

Размер: 1.98 GB | Добавлен: 4 года 8 мес. назад | Торрент скачан:1496 раз
Скачать  

11-09-2015 20:47 Овечка Долли была злая и рано умерла Скачать торрент  

Овечка Долли была злая и рано умерла


Год выпуска: 2015
Страна: Россия
Жанр: фантастика, комедия, приключения
Продолжительность: 01:56:37
Перевод: Оригинал - [Лицензия / iTunes]
Навигация по главам: есть
Режиссер: Алексей Пиманов
В ролях: Данила Шевченко (Никита), Юлия Савичева (Маша), Виктор Сухоруков (декан института), Роман Полянский, Виктория Маслова, Борис Щербаков, Анна Шерлинг, Юлия Пожидаева, Антон Феоктистов, Ирина Ильинская, Николай Клименко, Даниил Воробьев
Описание:
Главный герой - современный молодой человек Никита, студент МИФИ, в результате научного эксперимента попадает в прошлое, где ему предстоит встретить не только своих молодых родителей, но найти новых друзей и обрести настоящую любовь в лице студентки Маши. Эта встреча заставляет его по-другому посмотреть на свою жизнь. Однако Никита вдруг понимает, что начинает стремительно стареть и спастись он может только если вернется обратно - в свое время. Но сделать это оказалось не так просто....

Качество: WEB-DLRip-AVC
Формат: MKV
Видео кодек: AVC
Аудио кодек: AC3
Видео: AVC, 1024x432 (2.35:1), 2190 kbps, 25 fps, 0,198 bpp
Аудио: русский / AC3 / 2.0 / 48 kHz / 192 kbps / 16 bit ||

Релиз-группа:

Код:

General
Unique ID                                : 212596416648616898652152342226373867797 (0x9FF0949AF25D9DFE940E1B3E873E7915)
Complete name                            : E:\торрент\O.D.B.Z.i.R.U.2015.O.WEB-DLRip.(AVC).mkv
Format                                   : Matroska
Format version                           : Version 4 / Version 2
File size                                : 1.98 GiB
Duration                                 : 1h 56mn
Overall bit rate                         : 2 431 Kbps
Encoded date                             : UTC 2015-09-11 15:47:29
Writing application                      : mkvmerge v8.1.0 ('Psychedelic Postcard') 32bit
Writing library                          : Lavf56.22.100
DURATION                                 : 01:56:37.792000000
NUMBER_OF_FRAMES                         : 218681
NUMBER_OF_BYTES                          : 167947008
_STATISTICS_WRITING_APP                  : mkvmerge v8.1.0 ('Psychedelic Postcard') 32bit
_STATISTICS_WRITING_DATE_UTC             : 2015-09-11 18:37:21
_STATISTICS_TAGS                         : BPS DURATION NUMBER_OF_FRAMES NUMBER_OF_BYTES

Video
ID                                       : 1
Format                                   : AVC
Format/Info                              : Advanced Video Codec
Format profile                           : High@L4.1
Format settings, CABAC                   : Yes
Format settings, ReFrames                : 9 frames
Codec ID                                 : V_MPEG4/ISO/AVC
Duration                                 : 1h 56mn
Bit rate                                 : 2 190 Kbps
Nominal bit rate                         : 2 358 Kbps
Width                                    : 1 024 pixels
Height                                   : 432 pixels
Display aspect ratio                     : 2.35:1
Frame rate mode                          : Variable
Frame rate                               : 25.000 fps
Standard                                 : Component
Color space                              : YUV
Chroma subsampling                       : 4:2:0
Bit depth                                : 8 bits
Scan type                                : Progressive
Bits/(Pixel*Frame)                       : 0.198
Stream size                              : 1.78 GiB (90%)
Writing library                          : x264 core 144 r2525
Encoding settings                        : cabac=1 / ref=9 / deblock=1:-1:-1 / analyse=0x3:0x102 / me=umh / subme=9 / psy=1 / psy_rd=1.00:0.00 / mixed_ref=0 / me_range=38 / chroma_me=1 / trellis=2 / 8x8dct=1 / cqm=0 / deadzone=21,11 / fast_pskip=1 / chroma_qp_offset=-2 / threads=6 / lookahead_threads=1 / sliced_threads=0 / nr=0 / decimate=1 / interlaced=0 / bluray_compat=0 / constrained_intra=0 / bframes=9 / b_pyramid=0 / b_adapt=1 / b_bias=9 / direct=3 / weightb=1 / open_gop=0 / weightp=2 / keyint=250 / keyint_min=25 / scenecut=40 / intra_refresh=0 / rc_lookahead=40 / rc=2pass / mbtree=0 / bitrate=2358 / ratetol=1.0 / qcomp=1.00 / qpmin=16 / qpmax=69 / qpstep=4 / cplxblur=20.0 / qblur=0.5 / vbv_maxrate=60000 / vbv_bufsize=51000 / nal_hrd=none / filler=0 / ip_ratio=1.40 / pb_ratio=1.30 / aq=3:1.00
Default                                  : Yes
Forced                                   : No
DURATION                                 : 01:56:37.720000000
NUMBER_OF_FRAMES                         : 174943
NUMBER_OF_BYTES                          : 1956822473
_STATISTICS_WRITING_APP                  : mkvmerge v8.1.0 ('Psychedelic Postcard') 32bit
_STATISTICS_WRITING_DATE_UTC             : 2015-09-11 18:37:21
_STATISTICS_TAGS                         : BPS DURATION NUMBER_OF_FRAMES NUMBER_OF_BYTES

Audio
ID                                       : 2
Format                                   : AC-3
Format/Info                              : Audio Coding 3
Mode extension                           : CM (complete main)
Codec ID                                 : A_AC3
Duration                                 : 1h 56mn
Bit rate mode                            : Constant
Bit rate                                 : 192 Kbps
Channel(s)                               : 2 channels
Channel positions                        : Front: L R
Sampling rate                            : 48.0 KHz
Bit depth                                : 16 bits
Compression mode                         : Lossy
Delay relative to video                  : -40ms
Stream size                              : 160 MiB (8%)
Language                                 : Russian
Default                                  : Yes
Forced                                   : No

Menu
00:00:00.000                             : en:Глава 1
00:05:36.000                             : en:Глава 2
00:10:46.000                             : en:Глава 3
00:16:09.000                             : en:Глава 4
00:21:20.000                             : en:Глава 5
00:27:03.000                             : en:Глава 6
00:32:21.000                             : en:Глава 7
00:37:58.000                             : en:Глава 8
00:43:23.000                             : en:Глава 9
00:48:16.000                             : en:Глава 10
00:54:01.000                             : en:Глава 11
00:59:39.000                             : en:Глава 12
01:05:34.000                             : en:Глава 13
01:11:49.000                             : en:Глава 14
01:17:17.000                             : en:Глава 15
01:21:49.000                             : en:Глава 16
01:26:52.000                             : en:Глава 17
01:32:07.000                             : en:Глава 18
01:38:04.000                             : en:Глава 19
01:43:57.000                             : en:Глава 20
01:49:41.000                             : en:Глава 21

pb.wtf



Скачать Овечка Долли была злая и рано умерла через торрент http://i2.imageban.ru/out/2015/09/11/558ccf620b82e34d6663950d9a1d88f5.jpg Скачать фильм Овечка Долли была злая и рано умерла через торрент бесплантно в хорошем качестве Описание: Главный герой - современный молодой человек Никита, студент МИФИ, в результате научного эксперимента попадает в прошлое, где ему ... 9.4 10 45
Info! Золотая раздача, скачанное не засчитывается.
Торрент: Зарегистрирован [2015-09-11 20:47] · скачан: 1 496 раз
Статус: √ проверено
Размер: 1.98 GB
Как cкачать? Как скачать Овечка Долли была злая и рано умерла через торрент | qTorrent

% Раздел Тема Автор DL S | L
Наши фильмы (HD, WEB-DL 720p, 1080p) [ 3.94 GB ] Овечка Долли была злая и рано умерла [2015 WEB-DL 1080p] Оригинал - / Newton5 Скачать
1 | 0
Наши фильмы (HD, WEB-DL 720p, 1080p) [ 3.33 GB ] Овечка Долли была злая и рано умерла [2015 WEB-DL 720p] Оригинал - / Newton5 Скачать
1 | 0
Наши новые фильмы 2015 [ 1.45 GB ] Овечка Долли была злая и рано умерла [2015 WEB-DLRip] Оригинал - / Newton5 Скачать
1 | 0

28-11-2019 20:33  

Отключить всю рекламу на сайте

11-09-2015 22:04 Овечка Долли была злая и рано умерла Скачать торрент  

мде........ помойму по названию понятно что фильм ниочем)))pb.wtf



11-09-2015 22:29 Овечка Долли была злая и рано умерла Скачать торрент  

А вот и нет... Хороший, добрый, спокойный фильм, где можно познакомиться с советской эпохой. Конечно ничего суперособенного, но смотреть можно...pb.wtf



12-09-2015 00:48 Овечка Долли была злая и рано умерла Скачать торрент  

я его кстати давно ждал очень благодарюpb.wtf



12-09-2015 16:48 Овечка Долли была злая и рано умерла Скачать торрент  

Однозначно не плохой. Мне даже понравилось.pb.wtf



15-09-2015 09:35 Овечка Долли была злая и рано умерла Скачать торрент  

хороший добрый фильмpb.wtf



23-09-2015 19:37 Овечка Долли была злая и рано умерла Скачать торрент  

Побольше бы таких добрых фильмов. Очень понравился.pb.wtf



23-11-2015 19:49 Овечка Долли была злая и рано умерла Скачать торрент  

Думал фигня фильм,оказался весьма хороший!!!pb.wtf



29-12-2015 15:57 Овечка Долли была злая и рано умерла Скачать торрент  

Фильм действительно хороший, наконец у наших режиссёров стало получатьсяpb.wtf



01-01-2016 13:33 Овечка Долли была злая и рано умерла Скачать торрент  

Подтверждаю, весьма смотрибельно. Стоит смотретьpb.wtf



    Дорогой пользователь! Огромная просьба, поблагодарите релизера, оцените раздачу и оставьте свои комментарий, если Вы скачали Овечка Долли была злая и рано умерла через торрент бесплатно! Внесите свою лепту в развитие PiratBit!
    Комментировать посты могут только пользователи прошедшие не сложную регистрацию
    Показать сообщения:    

    Овечка Долли была злая и рано умерла через торрент
    Скачать бесплатно Овечка Долли была злая и рано умерла
    Овечка Долли была злая и рано умерла скачать торрент
    Овечка Долли была злая и рано умерла смотреть онлайн
    Cкачать фильм Овечка Долли была злая и рано умерла бесплатно
    Овечка Долли была злая и рано умерла скачать торрент в хорошем качестве
    Овечка Долли была злая и рано умерла смотреть онлайн бесплатно в хорошем качестве


    Вы не можете начинать темы
    Вы не можете отвечать на сообщения
    Вы не можете редактировать свои сообщения
    Вы не можете удалять свои сообщения
    Вы не можете голосовать в опросах
    Вы не можете прикреплять файлы к сообщениям
    Вы можете скачивать файлы