новый адрес пиратбит piratbit
Мега распродажа FORZA HORIZON 4 ULTIMATE+ВСЕ DLC+ОНЛАЙН всего за 499р. 349 руб. (супер цена). Внимание количество ограничено!!!

iTunes

1+1

iTunes

мы

iTunes

1

iTunes

Чернобыль

iTunes

Ральф против интернета

Лицензия

ПШазам

Лицензия

Игра престолов

Лицензия

30
pack

ВАЖНО

!!Акция!!

Alien_RageХит недели

RePack

Resident Evil 21

ИГРА 18+

pack

RePack

Metro:Exodus

!!Акция!!

Alien_Rage

RePack

fifa19

RePack

Assassins Creed: Odyssey

RePack

NEED FOR SPEED™ PAYBACK

3 сезон

9 сезон

Бесстыжие 9 сезон

Все сериалы

все сериалы на PB.wtf

RePack

FAR CRY 5
Ребята, катастрофически не хватает 1900р. для оплаты серверов за Октябрь (всвязи с блокировками трафик упал в 3 раза), 1-2р., выручайте.
  

Сохраняя веру / Keeping the Faith (Эдвард Нортон) [2000, комедия, драма, мелодрама, BDRip 1080p by msltel] MVO, AVO pb.wtf

Сохраняя веру через торрент pb.wtf

Размер: 13.43 GB | Добавлен: 4 года 2 мес. назад | Торрент скачан:12 раз
Скачать  

12-09-2015 09:15 Сохраняя веру Скачать торрент  

Название: Сохраняя веру
Оригинальное название: Keeping the Faith
Год выпуска: 2000
Страна: США
Жанр: комедия, драма, мелодрама
Продолжительность: 02:09:27
Перевод: профессиональный многоголосый, авторский

Режиссёр: Эдвард Нортон

В ролях: Бен Стиллер, Эдвард Нортон, Дженна Элфмэн, Энн Бэнкрофт, Эли Уоллах, Рон Рифкин, Милош Форман, Холланд Тейлор, Лиза Эдельстейн, Рена Софер, Кен Люн, Брайан Джордж, Кэтрин Ллойд Барнс, Сьюзи Эссман, Стюарт Блумберг, Сэмюэл Р. Голдберг, Майкл Роман, Блайт Оффарт, Джонатан Рэнделл Сильвер, Брайан Энтони Уилсон

Описание: Брайан, Джейкоб и Анна дружили с детства. Брайан стал католическим священником, Джейкоб — раввином, а Анна — деловой женщиной. Джейкобу, как раввину, можно жениться только на еврейке. Когда он через несколько лет встретился с Анной, вспыхнула любовь. Брайан, тем временем, тоже влюбился в Анну. Но Брайан и Джейк служат Богу, и у обоих нет никакой надежды: вероисповедание не позволяет ни одному из них быть вместе с прекрасной Анной. Однако какой бы крепкой ни была вера, ей очень трудно устоять перед искушением...



Качество: BDRip 1080p Сравнение с исходником
Формат: MKV
Видео кодек: H.264
Аудио кодек: AC3, DTS
Видео: MPEG-4 AVC, 11.3 Mбит/с, 1920x1038, 23,976 кадра/с
Аудио 1: русский, AC3, 192 kbps, 2 ch, 48 kHz [профессиональный многоголосый]
Аудио 2: русский, DTS, 1509 kbps, 6 ch, 48 kHz [авторский, Евгений Гранкин]
Аудио 3: английский, DTS, 1509 kbps, 6 ch, 48 kHz [оригинал]
Субтитры 1: русские
Субтитры 2: английские (для слабослышащих)
Общее
Уникальный идентификатор : 224471501038008819549342686508395399420 (0xA8DFA3781525B910A408F02A3D8E08FC)
Полное имя : D:VideoСохраняя веру.2000.BDRip.1080p.mkv
Формат : Matroska
Версия формата : Version 4 / Version 2
Размер файла : 13,4 Гбайт
Продолжительность : 2 ч. 9 м.
Общий поток : 14,9 Мбит/сек
Название фильма : BDRip -- STarankov
Дата кодирования : UTC 2015-09-12 06:25:00
Программа кодирования : mkvmerge v8.2.0 ('World of Adventure') 64bit
Библиотека кодирования : libebml v1.3.1 + libmatroska v1.4.2
DURATION : 02:09:26.763000000
NUMBER_OF_FRAMES : 728134
NUMBER_OF_BYTES : 1465006224
_STATISTICS_WRITING_APP : mkvmerge v8.2.0 ('World of Adventure') 64bit
_STATISTICS_WRITING_DATE_UTC : 2015-09-12 06:25:00
_STATISTICS_TAGS : BPS DURATION NUMBER_OF_FRAMES NUMBER_OF_BYTES

Видео
Идентификатор : 1
Формат : AVC
Формат/Информация : Advanced Video Codec
Профиль формата : High@L4.1
Параметр CABAC формата : Да
Параметр ReFrames формата : 4 кадра
Идентификатор кодека : V_MPEG4/ISO/AVC
Продолжительность : 2 ч. 9 м.
Битрейт : 11,3 Мбит/сек
Ширина : 1920 пикселей
Высота : 1038 пикселей
Соотношение сторон : 1,85:1
Режим частоты кадров : Постоянный
Частота кадров : 23,976 кадра/сек
Цветовое пространство : YUV
Субдискретизация насыщенности : 4:2:0
Битовая глубина : 8 бит
Тип развёртки : Прогрессивная
Бит/(Пиксели*Кадры) : 0.237
Размер потока : 10,3 Гбайт (76%)
Библиотека кодирования : x264 core 146 r2538 121396c
Настройки программы : cabac=1 / ref=4 / deblock=1:-2:-2 / analyse=0x3:0x113 / me=umh / subme=10 / psy=1 / psy_rd=1.00:0.15 / mixed_ref=1 / me_range=32 / chroma_me=1 / trellis=2 / 8x8dct=1 / cqm=0 / deadzone=21,11 / fast_pskip=1 / chroma_qp_offset=-3 / threads=6 / lookahead_threads=1 / sliced_threads=0 / nr=0 / decimate=1 / interlaced=0 / bluray_compat=0 / constrained_intra=0 / bframes=14 / b_pyramid=2 / b_adapt=2 / b_bias=0 / direct=1 / weightb=1 / open_gop=0 / weightp=2 / keyint=230 / keyint_min=23 / scenecut=40 / intra_refresh=0 / rc_lookahead=40 / rc=crf / mbtree=0 / crf=19.2 / qcomp=0.60 / qpmin=0 / qpmax=69 / qpstep=4 / vbv_maxrate=40000 / vbv_bufsize=50000 / crf_max=0.0 / nal_hrd=none / filler=0 / ip_ratio=1.40 / pb_ratio=1.30 / aq=1:1.00
Язык : English
Default : Да
Forced : Нет
DURATION : 02:09:17.917000000
NUMBER_OF_FRAMES : 186004
NUMBER_OF_BYTES : 11299363009
_STATISTICS_WRITING_APP : mkvmerge v8.2.0 ('World of Adventure') 64bit
_STATISTICS_WRITING_DATE_UTC : 2015-09-12 06:25:00
_STATISTICS_TAGS : BPS DURATION NUMBER_OF_FRAMES NUMBER_OF_BYTES

Аудио #1
Идентификатор : 2
Формат : AC-3
Формат/Информация : Audio Coding 3
Расширение режима : CM (complete main)
Параметр Endianness формата : Big
Идентификатор кодека : A_AC3
Продолжительность : 2 ч. 9 м.
Вид битрейта : Постоянный
Битрейт : 192 Кбит/сек
Каналы : 2 канала
Расположение каналов : Front: L R
Частота : 48,0 КГц
Метод сжатия : С потерями
Размер потока : 178 Мбайт (1%)
Заголовок : MVO
Язык : Russian
Default : Да
Forced : Нет

Аудио #2
Идентификатор : 3
Формат : DTS
Формат/Информация : Digital Theater Systems
Режим : 16
Параметр Endianness формата : Big
Идентификатор кодека : A_DTS
Продолжительность : 2 ч. 9 м.
Вид битрейта : Постоянный
Битрейт : 1509 Кбит/сек
Каналы : 6 каналов
Расположение каналов : Front: L C R, Side: L R, LFE
Частота : 48,0 КГц
Битовая глубина : 24 бит
Метод сжатия : С потерями
Размер потока : 1,36 Гбайт (10%)
Заголовок : AVO (Евгений Гранкин)
Язык : Russian
Default : Нет
Forced : Нет

Аудио #3
Идентификатор : 6
Формат : DTS
Формат/Информация : Digital Theater Systems
Режим : 16
Параметр Endianness формата : Big
Идентификатор кодека : A_DTS
Продолжительность : 2 ч. 9 м.
Вид битрейта : Постоянный
Битрейт : 1509 Кбит/сек
Каналы : 6 каналов
Расположение каналов : Front: L C R, Side: L R, LFE
Частота : 48,0 КГц
Битовая глубина : 24 бит
Метод сжатия : С потерями
Размер потока : 1,36 Гбайт (10%)
Заголовок : Original
Язык : English
Default : Нет
Forced : Нет

Текст #1
Идентификатор : 4
Формат : UTF-8
Идентификатор кодека : S_TEXT/UTF8
Идентификатор кодека/Информация : UTF-8 Plain Text
Заголовок : русский
Язык : Russian
Default : Нет
Forced : Нет

Текст #2
Идентификатор : 5
Формат : UTF-8
Идентификатор кодека : S_TEXT/UTF8
Идентификатор кодека/Информация : UTF-8 Plain Text
Заголовок : английский (для слабослышащих)
Default : Нет
Forced : Нет
pb.wtf



Скачать Сохраняя веру через торрент http://i72.fastpic.ru/big/2015/0910/fd/69d3c8686f658261b11a85cd0e6a2efd.jpg Скачать фильм Сохраняя веру через торрент бесплантно в хорошем качестве Описание: Брайан, Джейкоб и Анна дружили с детства. Брайан стал католическим священником, Джейкоб — раввином, а Анна — деловой женщиной. ... 10 10 3
Info! Золотая раздача, скачанное не засчитывается.
Торрент: Зарегистрирован [2015-09-12 09:15] · скачан: 12 раз
Статус: √ проверено
Размер: 13.43 GB
Как cкачать? Как скачать Сохраняя веру через торрент | qTorrent

% Раздел Тема Автор DL S | L
Фильмы до 2000 г. [ 3.37 GB ] Сохраняя веру / Keeping the Faith [2000 BDRip AVC by msltel] MVO AVO msltel Скачать
1 | 0
Фильмы [HD 720p, 1080p] (Хороший звук DUB, MVO) [ 5.18 GB ] Сохраняя веру / Keeping the Faith [2000 BDRip 720p by msltel] MVO AVO msltel Скачать
1 | 0


>> Регистрируемся здесь <<






Отзывы и комментарии о схеме читаем и пишем здесь: ---> Отзывы и комментарии о схеме

Новые благодарочки в телеграм довольных пользователей:
скриншот   скриншот   скриншот   скриншот   скриншот
    Дорогой пользователь! Огромная просьба, поблагодарите релизера, оцените раздачу и оставьте свои комментарий, если Вы скачали Сохраняя веру через торрент бесплатно! Внесите свою лепту в развитие PiratBit!
    Комментировать посты могут только пользователи прошедшие не сложную регистрацию
    Показать сообщения:    

    Сохраняя веру через торрент
    Скачать бесплатно Сохраняя веру
    Сохраняя веру скачать торрент
    Сохраняя веру смотреть онлайн
    Cкачать фильм Сохраняя веру бесплатно
    Сохраняя веру скачать торрент в хорошем качестве
    Сохраняя веру смотреть онлайн бесплатно в хорошем качестве


    Вы не можете начинать темы
    Вы не можете отвечать на сообщения
    Вы не можете редактировать свои сообщения
    Вы не можете удалять свои сообщения
    Вы не можете голосовать в опросах
    Вы не можете прикреплять файлы к сообщениям
    Вы можете скачивать файлы