Ссылка на приватное зеркало нашего сайта всего за 1$. Внимание количество ограничено!!!

2 сезон

iTunes

1 сезон

1

iTunes

iTunes

iTunes

1 сезон

RePack

30

ИГРА 18+

pack

ВАЖНО

!!Акция!!

Alien_RageХит недели

RePack

MK11
pack

Забери бонус

RePack

jed

!!Акция!!

Alien_Rage

RePack

fifa19

RePack

Assassins Creed: Odyssey

RePack

NEED FOR SPEED™ PAYBACK

4 сезон

9 сезон

Бесстыжие 9 сезон

Все сериалы

все сериалы на PB.wtf

RePack

FAR CRY 5
  

Последний легион / The Last Legion (Даг Лефлер) [2007 г., Фэнтези, Боевик, Приключения, BDRip 720p] Дубляж pb.wtf

Последний легион через торрент pb.wtf

Размер: 5.89 GB | Добавлен: 5 лет 1 мес. назад | Торрент скачан:106 раз
Скачать  

12-09-2015 09:33 Последний легион Скачать торрент  

Последний легион / The Last Legion
Год выпуска: 2007
Страна: Великобритания, Италия, Франция, Тунис
Жанр: Фэнтези, Боевик, Приключения
Продолжительность: 01:41:55
Перевод: Дубляж
Субтитры: Русский, английский

Режиссер: Даг Лефлер

В ролях: Колин Фёрт, Бен Кингсли, Айшвария Рай Баччан, Питер Муллан, Кевин МакКидд, Джон Ханна, Иэн Глен, Томас Сэнгстер, Руперт Френд, Нонсо Анози

Описание: 476 год нашей эры. Римская империя в агонии… Династия Цезарей повержена… Последнего императора, 12-летнего Ромулуса Августуса, правившего страной всего один день, варвары заключают в темницу на острове Капри.

Однако с помощью своего учителя и легионера Августус совершает побег и отправляется в рискованное путешествие к берегам Британии, чтобы возглавить Девятый легион, единственный сохранивший верность Риму. Последний легион… Августус должен спасти страну, вернуть Влacть, восстановить династию. Кому соблаговолит Небо в решающей битве?



Качество: BDRip 720p
Формат: MKV
Видео кодек: H.264
Аудио кодек: AC3
Видео: 1280x534 (2.40:1), 23.976 fps, 7217 Kbps (0.440 bit/pixel)
Аудио#1: AC-3, 48.0 KHz, 6 ch, 448 Kbps, CBR (Русский)
Аудио#2: AC-3, 48.0 KHz, 6 ch, 448 Kbps, CBR (Английский)
Общее
Уникальный идентификатор : 224522586952144748065202628344558124107 (0xA8E97A32F85982FA89ED95EFAEB3FC4B)
Полное имя : D:\Скачанное\The.Last.Legion.2007.BDRip.720p.mkv
Формат : Matroska
Версия формата : Version 2
Размер файла : 5,89 Гбайт
Продолжительность : 1 ч. 41 м.
Общий поток : 8278 Кбит/сек
Название фильма : The Last Legion 2007
Дата кодирования : UTC 2015-09-11 15:12:38
Программа кодирования : mkvmerge v5.8.0 ('No Sleep / Pillow') built on Sep 2 2012 15:37:04
Библиотека кодирования : libebml v1.2.3 + libmatroska v1.3.0

Видео
Идентификатор : 1
Формат : AVC
Формат/Информация : Advanced Video Codec
Профиль формата : High@L4.1
Параметр CABAC формата : Да
Параметр ReFrames формата : 12 кадров
Идентификатор кодека : V_MPEG4/ISO/AVC
Продолжительность : 1 ч. 41 м.
Битрейт : 7217 Кбит/сек
Ширина : 1280 пикселей
Высота : 534 пикселя
Соотношение сторон : 2,40:1
Режим частоты кадров : Постоянный
Частота кадров : 23,976 кадра/сек
Цветовое пространство : YUV
Субдискретизация насыщенности : 4:2:0
Битовая глубина : 8 бит
Тип развёртки : Прогрессивная
Бит/(Пиксели*Кадры) : 0.440
Размер потока : 5,14 Гбайт (87%)
Библиотека кодирования : x264 core 142 r2431+42 c69a006 tMod [8-bit@all X86_64]
Настройки программы : cabac=1 / ref=12 / deblock=1:-3:-3 / analyse=0x3:0x133 / me=esa / subme=9 / psy=1 / fade_compensate=0.00 / psy_rd=1.10:0.05 / mixed_ref=1 / me_range=24 / chroma_me=1 / trellis=2 / 8x8dct=1 / cqm=0 / deadzone=21,11 / fast_pskip=0 / chroma_qp_offset=-3 / threads=6 / lookahead_threads=1 / sliced_threads=0 / nr=0 / decimate=1 / interlaced=0 / bluray_compat=0 / constrained_intra=0 / fgo=0 / bframes=12 / b_pyramid=2 / b_adapt=2 / b_bias=0 / direct=3 / weightb=1 / open_gop=0 / weightp=2 / keyint=250 / keyint_min=23 / scenecut=40 / intra_refresh=0 / rc_lookahead=60 / rc=crf / mbtree=0 / crf=17.5000 / qcomp=0.60 / qpmin=0:0:0 / qpmax=69:69:69 / qpstep=4 / vbv_maxrate=62500 / vbv_bufsize=78125 / crf_max=0.0 / nal_hrd=none / filler=0 / ip_ratio=1.30 / pb_ratio=1.20 / aq=1:0.65 / aq-sensitivity=10.00 / aq-factor=1.00:1.00:1.00 / aq2=0 / aq3=0
Язык : English
Default : Да
Forced : Нет
colour_range : Limited
Коэффициенты матрицы : BT.709

Аудио #1
Идентификатор : 2
Формат : AC-3
Формат/Информация : Audio Coding 3
Расширение режима : CM (complete main)
Параметр Endianness формата : Big
Идентификатор кодека : A_AC3
Продолжительность : 1 ч. 41 м.
Вид битрейта : Постоянный
Битрейт : 448 Кбит/сек
Каналы : 6 каналов
Расположение каналов : Front: L C R, Side: L R, LFE
Частота : 48,0 КГц
Метод сжатия : С потерями
Размер потока : 327 Мбайт (5%)
Язык : Russian
Default : Да
Forced : Нет

Аудио #2
Идентификатор : 3
Формат : AC-3
Формат/Информация : Audio Coding 3
Расширение режима : CM (complete main)
Параметр Endianness формата : Big
Идентификатор кодека : A_AC3
Продолжительность : 1 ч. 41 м.
Вид битрейта : Постоянный
Битрейт : 448 Кбит/сек
Каналы : 6 каналов
Расположение каналов : Front: L C R, Side: L R, LFE
Частота : 48,0 КГц
Метод сжатия : С потерями
Размер потока : 327 Мбайт (5%)
Язык : English
Default : Нет
Forced : Нет

Текст #1
Идентификатор : 4
Формат : UTF-8
Идентификатор кодека : S_TEXT/UTF8
Идентификатор кодека/Информация : UTF-8 Plain Text
Язык : Russian
Default : Нет
Forced : Нет

Текст #2
Идентификатор : 5
Формат : UTF-8
Идентификатор кодека : S_TEXT/UTF8
Идентификатор кодека/Информация : UTF-8 Plain Text
Язык : English
Default : Нет
Forced : Нет

Меню
00:00:00.000 : en:00:00:00.000
00:09:07.337 : en:00:09:07.337
00:18:07.377 : en:00:18:07.377
00:25:35.826 : en:00:25:35.826
00:34:07.628 : en:00:34:07.628
00:43:32.693 : en:00:43:32.693
00:51:09.400 : en:00:51:09.400
00:58:58.994 : en:00:58:58.994
01:07:46.646 : en:01:07:46.646
01:17:52.042 : en:01:17:52.042
01:24:08.502 : en:01:24:08.502
01:34:00.301 : en:01:34:00.301
скриншот   скриншот   скриншот   скриншот  
pb.wtf



Скачать Последний легион через торрент http://pic1.kartinco.top/images/10/t5ac3.jpg Скачать фильм Последний легион через торрент бесплантно в хорошем качестве Описание: 476 год нашей эры. Римская империя в агонии… Династия Цезарей повержена… Последнего императора, 12-летнего Ромулуса Августуса, ... 9.5 10 10
Info! Золотая раздача, скачанное не засчитывается.
Торрент: Зарегистрирован [2015-09-12 09:33] · скачан: 106 раз
Статус: √ проверено
Размер: 5.89 GB
Как cкачать? Как скачать Последний легион через торрент | qTorrent

28-11-2019 20:33  

Отключить всю рекламу на сайте

    Дорогой пользователь! Огромная просьба, поблагодарите релизера, оцените раздачу и оставьте свои комментарий, если Вы скачали Последний легион через торрент бесплатно! Внесите свою лепту в развитие PiratBit!
    Комментировать посты могут только пользователи прошедшие не сложную регистрацию
    Показать сообщения:    

    Последний легион через торрент
    Скачать бесплатно Последний легион
    Последний легион скачать торрент
    Последний легион смотреть онлайн
    Cкачать фильм Последний легион бесплатно
    Последний легион скачать торрент в хорошем качестве
    Последний легион смотреть онлайн бесплатно в хорошем качестве


    Вы не можете начинать темы
    Вы не можете отвечать на сообщения
    Вы не можете редактировать свои сообщения
    Вы не можете удалять свои сообщения
    Вы не можете голосовать в опросах
    Вы не можете прикреплять файлы к сообщениям
    Вы можете скачивать файлы