Ссылка на приватное зеркало нашего сайта всего за 1$. Внимание количество ограничено!!!

2 сезон

iTunes

1 сезон

1

2 сезон

2 сезон

iTunes

1 сезон

RePack

30

Новинка

ВАЖНО

ИГРА 18+

pack

RePack

MK11
pack

Забери бонус

RePack

jed

!!Акция!!

Alien_Rage

RePack

fifa19

RePack

Assassins Creed: Odyssey

RePack

NEED FOR SPEED™ PAYBACK

4 сезон

9 сезон

Бесстыжие 9 сезон

Все сериалы

все сериалы на PB.wtf

RePack

FAR CRY 5
  

Дом тигра / Tiger House (Томас Дэйли) [2015, боевик, триллер, драма, WEB-DLRip, Любительский (одноголосый)[Петр Титов] pb.wtf

Дом тигра через торрент pb.wtf

Размер: 1.36 GB | Добавлен: 5 лет 2 мес. назад | Торрент скачан:201 раз
Скачать  

12-09-2015 10:37 Дом тигра Скачать торрент  


Дом тигра / Tiger House


ИНФОРМАЦИЯ:
Год выпуска:2015
Страна: Великобритания, ЮАР
Жанр: боевик, триллер, драма, криминал
Продолжительность: 01:22:40
Перевод: Любительский (одноголосый)[Петр Титов]
Режиссер: Томас Дэйли

В Ролях:


Эд Скрейн (Callum), Кая Скоделарио (Kelly), Дюгрей Скотт (Shane), Брэндон Оре (Reg), Лэнгли Кирквуд (Sveta), Джули Саммерс (Lynn), Дэниэл Бойд (Mark), Эндрю Брент (Doug)

Описание:
Когда героиня фильма Келли узнала, что неизвестные преступники ворвались в дачный дом ее лучшего друга и взяли его в плен вместе с родителями, то Келли поняла, что теперь на полицию можно не рассчитывать, потому что она просто не успеет осуществить спасательную операцию. Так как Келли была профессиональной гимнасткой, то ей не составило труда тайком проникнуть в дом с преступниками и заложниками, после чего героиня начала ориентироваться по ситуации. На хрупкие плечи девушки возложена очень огромная ответственность, потому что отважной героине придется самостоятельно справляться с вооруженными бандитами.

  • Мировая премьера:24 июля 2015

    ТЕХ.ДАННЫЕ:
    Качество: WEB-DLRip
    Формат: AVI
    Видео кодек: XviD
    Аудио кодек: AC3
    Видео: XviD, 720x304 (2.35:1), 1868 kbps, 24 fps, 0,356 bpp
    Аудио №1: AC3 / 2.0 / 44 kHz / 192 kbps / [Петр Титов]
    Аудио №2: AC3 / 2.0 / 48 kHz / 192 kbps /English


    General
    Complete name : D:\Торенты\Tiger.House.2015.L1.WEB-DLRip.1400MB.avi
    Format : AVI
    Format/Info : Audio Video Interleave
    File size : 1.36 GiB
    Duration : 1h 22mn
    Overall bit rate : 2 356 Kbps
    Writing application : VirtualDubMod 1.5.10.3 | www.virtualdub-fr.org || (build 2550/release)
    Writing library : VirtualDubMod build 2550/release

    Video
    ID : 0
    Format : MPEG-4 Visual
    Format profile : Advanced Simple@L5
    Format settings, BVOP : 1
    Format settings, QPel : No
    Format settings, GMC : No warppoints
    Format settings, Matrix : Custom
    Codec ID : XVID
    Codec ID/Hint : XviD
    Duration : 1h 22mn
    Bit rate : 1 868 Kbps
    Width : 720 pixels
    Height : 304 pixels
    Display aspect ratio : 2.35:1
    Frame rate : 24.000 fps
    Color space : YUV
    Chroma subsampling : 4:2:0
    Bit depth : 8 bits
    Scan type : Progressive
    Compression mode : Lossy
    Bits/(Pixel*Frame) : 0.356
    Stream size : 1.08 GiB (79%)
    Writing library : XviD 73

    Audio #1
    ID : 1
    Format : AC-3
    Format/Info : Audio Coding 3
    Mode extension : CM (complete main)
    Codec ID : 2000
    Duration : 1h 22mn
    Bit rate mode : Constant
    Bit rate : 192 Kbps
    Channel(s) : 2 channels
    Channel positions : Front: L R
    Sampling rate : 44.1 KHz
    Bit depth : 16 bits
    Compression mode : Lossy
    Stream size : 114 MiB (8%)
    Alignment : Split accross interleaves

    Audio #2
    ID : 2
    Format : AC-3
    Format/Info : Audio Coding 3
    Mode extension : CM (complete main)
    Codec ID : 2000
    Duration : 1h 22mn
    Bit rate mode : Constant
    Bit rate : 192 Kbps
    Channel(s) : 2 channels
    Channel positions : Front: L R
    Sampling rate : 48.0 KHz
    Bit depth : 16 bits
    Compression mode : Lossy
    Stream size : 114 MiB (8%)
    Alignment : Split accross interleaves
    Скриншоты:


    © Оформление by Ворон
    pb.wtf



  • Скачать Дом тигра через торрент http://pic.kartinco.top/images/6/ordi9.jpg Скачать фильм Дом тигра через торрент бесплантно в хорошем качестве Описание: Когда героиня фильма Келли узнала, что неизвестные преступники ворвались в дачный дом ее лучшего друга и взяли его в плен вместе ... 9.9 10 10
    Торрент: Зарегистрирован [2015-09-12 10:37] · скачан: 201 раз
    Статус: T временная
    Размер: 1.36 GB
    Как cкачать? Как скачать Дом тигра через торрент | qTorrent

    % Раздел Тема Автор DL S | L
    T Фильмы (WEB-DL 720p, 1080p) [ 2.64 GB ] Дом тигра / Tiger House [2015 WEB-DL 720p] VO Ворон Скачать
    1 | 0


    Последний раз редактировалось: Ворон (2015-09-12 10:57), всего редактировалось 1 раз

    28-11-2019 20:33  

    Отключить всю рекламу на сайте

    12-09-2015 10:52 Дом тигра Скачать торрент  

    т.к. она была гимнасткой - она решила пойти навалять вооружённым преступникам.
    я понимаю, если бы хотя бы балериной была - удар ноги балерины две тонны, но гимнасткой...pb.wtf



    12-09-2015 14:34 Дом тигра Скачать торрент  

    sergunka писал(а):

    т.к. она была гимнасткой - она решила пойти навалять вооружённым преступникам.
    я понимаю, если бы хотя бы балериной была - удар ноги балерины две тонны, но гимнасткой...

    удары не самая их сильная сторона .... эххх была у меня одна гимнасточка.....pb.wtf



    21-11-2015 14:21 Дом тигра Скачать торрент  

    " эххх была у меня одна гимнасточка....."
    Кажись тогда фильм был бы из жанра 18+pb.wtf



    21-11-2015 18:46 Дом тигра Скачать торрент  

    ksp1979 писал(а):

    удары не самая их сильная сторона .... эххх была у меня одна гимнасточка.....

    плюсую ,живу с 18 летней гимнасткойpb.wtf



      Дорогой пользователь! Огромная просьба, поблагодарите релизера, оцените раздачу и оставьте свои комментарий, если Вы скачали Дом тигра через торрент бесплатно! Внесите свою лепту в развитие PiratBit!
      Комментировать посты могут только пользователи прошедшие не сложную регистрацию
      Показать сообщения:    

      Дом тигра через торрент
      Скачать бесплатно Дом тигра
      Дом тигра скачать торрент
      Дом тигра смотреть онлайн
      Cкачать фильм Дом тигра бесплатно
      Дом тигра скачать торрент в хорошем качестве
      Дом тигра смотреть онлайн бесплатно в хорошем качестве


      Вы не можете начинать темы
      Вы не можете отвечать на сообщения
      Вы не можете редактировать свои сообщения
      Вы не можете удалять свои сообщения
      Вы не можете голосовать в опросах
      Вы не можете прикреплять файлы к сообщениям
      Вы можете скачивать файлы