Мега распродажа FORZA HORIZON 4 ULTIMATE+ВСЕ DLC+ОНЛАЙН всего за 499р. 349 руб. (супер цена). Внимание количество ограничено!!!

iTunes

1+1

iTunes

мы

iTunes

1

1 сезон

Чернобыль

1 сезон

Ральф против интернета

Лицензия

ПШазам

8 сезон

Игра престолов

Лицензия

30
pack

ВАЖНО

!!Акция!!

Alien_RageХит недели

RePack

Resident Evil 21

ИГРА 18+

pack

RePack

Metro:Exodus

!!Акция!!

Alien_Rage

RePack

fifa19

RePack

Assassins Creed: Odyssey

RePack

NEED FOR SPEED™ PAYBACK

3 сезон

9 сезон

Бесстыжие 9 сезон

Все сериалы

все сериалы на PB.wtf

RePack

FAR CRY 5
Ребята, катастрофически не хватает 2730р. для оплаты серверов за ИЮНЬ (всвязи с блокировками трафик упал в 3 раза), 1-2р., выручайте.
  

Террористы / Captain Nuke and the Bomber Boys (Чарльз Гэйл / Charles Gale) [1995, триллер, комедия, DVDRip] [AVO] (Юрий Сербин) pb.wtf

Террористы через торрент pb.wtf

Размер: 1.25 GB | Добавлен: 3 года 10 мес. назад | Торрент скачан:18 раз
Скачать  

12-09-2015 18:30 Террористы Скачать торрент  

Террористы / Captain Nuke and the Bomber Boys
Год выпуска: 1995
Страна: США
Жанр: триллер, комедия
Продолжительность: 01:27:54
Перевод: Авторский (одноголосый закадровый) Юрий Сербин
Cубтитры: нет

Режиссер: Чарльз Гэйл / Charles Gale

В ролях: Мартин Шин, Джо Мантенья, Джоанна Пакула, Кейт Малгрю, Род Стайгер, Майкл Толбот, Ребекка Бьюдиг, Ванда Де Хесус, Джо Пископо, Джошуа Шэфер

Описание: Сумасбродная комедия, сюжет которой вращается вокруг трех американских подростков, которые, случайно обнаружив настоящую атомную бомбу, звонят президенту, требуя выполнить их условие… отменить школу!



Качество видео: DVDRip
Формат видео: AVI
Видео кодек: XviD
Аудио кодек: AC3
Видео: 704x400 (1.76:1), 25 fps, XviD build 50 ~1834 kbps avg, 0.26 bit/pixel
Аудио: 48 kHz, AC3 Dolby Digital, 2/0 (L,R) ch, ~192 kbps

edich2 писал(а):

Fikaloid - за дорожку с переводом AVO с VHS
xelon2006 - за синхрон дорожки.
serg peresad - за исходник ДВД5

Релиз
Террористы - Captain Nuke and the Bomber Boys [by Edich2].avi
Format : AVI
Format/Info : Audio Video Interleave
File size : 1.25 GiB
Duration : 1h 27mn
Overall bit rate : 2 036 Kbps
Movie name : Террористы - Captain Nuke and the Bomber Boys [by Edich2]
Director : by Edich2
Writing application : VirtualDubMod 1.5.10.2 (build 2540/release)
Comment : RuTracker.org
Video
ID : 0
Format : MPEG-4 Visual
Format profile : Advanced Simple@L5
Format settings, BVOP : 1
Format settings, QPel : No
Format settings, GMC : No warppoints
Format settings, Matrix : Default (MPEG)
Codec ID : XVID
Codec ID/Hint : XviD
Duration : 1h 27mn
Bit rate : 1 835 Kbps
Width : 704 pixels
Height : 400 pixels
Display aspect ratio : 16:9
Frame rate : 25.000 fps
Color space : YUV
Chroma subsampling : 4:2:0
Bit depth : 8 bits
Scan type : Progressive
Compression mode : Lossy
Bits/(Pixel*Frame) : 0.261
Stream size : 1.13 GiB (90%)
Writing library : XviD 1.2.1 (UTC 2008-12-04)
Audio
ID : 1
Format : AC-3
Format/Info : Audio Coding 3
Mode extension : CM (complete main)
Format settings, Endianness : Big
Codec ID : 2000
Duration : 1h 27mn
Bit rate mode : Constant
Bit rate : 192 Kbps
Channel(s) : 2 channels
Channel positions : Front: L R
Sampling rate : 48.0 KHz
Bit depth : 16 bits
Compression mode : Lossy
Stream size : 121 MiB (9%)
Alignment : Split accross interleaves
Interleave, duration : 40 ms (1.00 video frame)
Interleave, preload duration : 500 ms
pb.wtf



Скачать Террористы через торрент http://i2.imageban.ru/out/2015/09/11/234c792fc587cbfcf28b2f69fe39efa2.jpg Скачать фильм Террористы через торрент бесплантно в хорошем качестве Описание: Сумасбродная комедия, сюжет которой вращается вокруг трех американских подростков, которые, случайно обнаружив настоящую ... 10 10 2
Info! Золотая раздача, скачанное не засчитывается.
Торрент: Зарегистрирован [2015-09-12 18:30] · скачан: 18 раз
Статус: √ проверено
Размер: 1.25 GB
Как cкачать? Как скачать Террористы через торрент | qTorrent


>> Регистрируемся здесь <<






Отзывы и комментарии о схеме читаем и пишем здесь: ---> Отзывы и комментарии о схеме

Новые благодарочки в телеграм довольных пользователей:
скриншот   скриншот   скриншот   скриншот   скриншот
    Дорогой пользователь! Огромная просьба, поблагодарите релизера, оцените раздачу и оставьте свои комментарий, если Вы скачали Террористы через торрент бесплатно! Внесите свою лепту в развитие PiratBit!
    Комментировать посты могут только пользователи прошедшие не сложную регистрацию
    Показать сообщения:    

    Террористы через торрент
    Скачать бесплатно Террористы
    Террористы скачать торрент
    Террористы смотреть онлайн
    Cкачать фильм Террористы бесплатно
    Террористы скачать торрент в хорошем качестве
    Террористы смотреть онлайн бесплатно в хорошем качестве


    Вы не можете начинать темы
    Вы не можете отвечать на сообщения
    Вы не можете редактировать свои сообщения
    Вы не можете удалять свои сообщения
    Вы не можете голосовать в опросах
    Вы не можете прикреплять файлы к сообщениям
    Вы можете скачивать файлы