2 сезон

iTunes

MVO

1

2 сезон

iTunes

iTunes

1 сезон

RePack

30

Ultimate

ВАЖНО

ИГРА 18+

pack

RePack

MK11
pack

Легкие деньги

RePack

jed

RePack

fifa19

RePack

RDR2

RePack

NEED FOR SPEED™ PAYBACK

4 сезон

9 сезон

Бесстыжие 9 сезон

Все сериалы

все сериалы на PB.wtf

RePack

FAR CRY 5

Anonymous, добрый вечер, мы не успеваем собрать деньги на оплату серверов за декабрь и январь, помогите нам пожалуйста в это трудное время. В качестве благодарности мы отключим Вам всю рекламу на сайте (укажите свой ник в строку Ваше имя)!

×
  
Magnet ссылка

Набережная Орсе / Quai d'Orsay (Бертран Тавернье) [2013, комедия, HDRip, Профессиональный многоголосый [официальный звук] pb.wtf

Набережная Орсе через торрент pb.wtf

Размер: 1.46 GB | Добавлен: 5 лет 4 мес. назад | Торрент скачан:274 раза
Скачать  

12-09-2015 19:30 Набережная Орсе Скачать торрент  


Набережная Орсе / Quai d'Orsay


ИНФОРМАЦИЯ:
Год выпуска:2013
Страна: Франция
Жанр: комедия
Продолжительность: 01:53:54
Перевод: Профессиональный многоголосый [официальный звук]
Режиссер: Бертран Тавернье

В Ролях:


Тьерри Лермитт (Alexandre Taillard de Worms), Рафаэль Персонас (Arthur Vlaminck), Нильс Ареструп (Claude Maupas), Бруно Раффаэлли (Stéphane Cahut), Жюли Гайе (Valérie Dumontheil), Анаис Демустье (Marina), Тома Шаброль (Sylvain Marquet), Тьерри Фремон (Guillaume Van Effentem), Аликс Пуасон (Odile), Мари Бюнель (Martine), Жан-Марк Руло (Bertrand Castela), Соня Роллан (Nathalie)

Описание:
Молодой выпускник вуза Артур Вламинк получает в министерстве иностранных дел на набережной Орсе должность помощника министра. Теперь в его обязанности будет входить написание речей для выступлений министра на различных деловых встречах и мероприятиях. Проработав там некоторое время, он видит интриги и "подковёрную" борьбу между сотрудниками министерства за должности. И, если бы не такие сотрудники как Клод, который фактически днюет и ночует на работе вместе со своим котом, то работа представительного ведомства просто превратилась бы в хаос.

  • Мировая премьера:27 августа 2013

    ТЕХ.ДАННЫЕ:
    Качество: HDRip
    Формат: AVI
    Видео кодек: XviD
    Аудио кодек: AC3
    Видео: XviD, 720x384 (1.875), 1560 kbps, 24 fps, 0,235 bpp
    Аудио: AC3 / 2.0 / 48 kHz / 192 kbps / 16 bit


    General
    Complete name : D:\Торенты\Naberezhnaya.Orse.2013.P.HDRip.avi
    Format : AVI
    Format/Info : Audio Video Interleave
    File size : 1.46 GiB
    Duration : 1h 53mn
    Overall bit rate : 1 834 Kbps
    Writing application : VirtualDubMod 1.5.10.2 (build 2540/release)
    Writing library : VirtualDubMod build 2540/release

    Video
    ID : 0
    Format : MPEG-4 Visual
    Format profile : Advanced Simple@L5
    Format settings, BVOP : 2
    Format settings, QPel : No
    Format settings, GMC : No warppoints
    Format settings, Matrix : Default (MPEG)
    Codec ID : XVID
    Codec ID/Hint : XviD
    Duration : 1h 53mn
    Bit rate : 1 560 Kbps
    Width : 720 pixels
    Height : 384 pixels
    Display aspect ratio : 1.875
    Frame rate : 24.000 fps
    Color space : YUV
    Chroma subsampling : 4:2:0
    Bit depth : 8 bits
    Scan type : Progressive
    Compression mode : Lossy
    Bits/(Pixel*Frame) : 0.235
    Stream size : 1.24 GiB (85%)
    Writing library : XviD 1.2.1 (UTC 2008-12-04)

    Audio
    ID : 1
    Format : AC-3
    Format/Info : Audio Coding 3
    Mode extension : CM (complete main)
    Codec ID : 2000
    Duration : 1h 53mn
    Bit rate mode : Constant
    Bit rate : 192 Kbps
    Channel(s) : 2 channels
    Channel positions : Front: L R
    Sampling rate : 48.0 KHz
    Bit depth : 16 bits
    Compression mode : Lossy
    Stream size : 156 MiB (10%)
    Alignment : Split accross interleaves
    Скриншоты:


    © Оформление by Ворон
    pb.wtf



  • Скачать Набережная Орсе через торрент http://pic.kartinco.top/images/6/ordi9.jpg Скачать фильм Набережная Орсе через торрент бесплантно в хорошем качестве Описание: Молодой выпускник вуза Артур Вламинк получает в министерстве иностранных дел на набережной Орсе должность помощника министра. ... 9.8 10 9
    Торрент: Зарегистрирован [2015-09-12 19:30] · скачан: 274 раз
    Статус: T временная
    Размер: 1.46 GB
    Как cкачать? Как скачать Набережная Орсе через торрент | UTorrent

    28-11-2019 20:33  

    Отключить всю рекламу на сайте

      Дорогой пользователь! Огромная просьба, поблагодарите релизера, оцените раздачу и оставьте свои комментарий, если Вы скачали Набережная Орсе через торрент бесплатно! Внесите свою лепту в развитие PiratBit!
      Комментировать посты могут только пользователи прошедшие не сложную регистрацию
      Показать сообщения:    

      Набережная Орсе через торрент
      Скачать бесплатно Набережная Орсе
      Набережная Орсе скачать торрент
      Набережная Орсе смотреть онлайн
      Cкачать фильм Набережная Орсе бесплатно
      Набережная Орсе скачать торрент в хорошем качестве
      Набережная Орсе смотреть онлайн бесплатно в хорошем качестве


      Вы не можете начинать темы
      Вы не можете отвечать на сообщения
      Вы не можете редактировать свои сообщения
      Вы не можете удалять свои сообщения
      Вы не можете голосовать в опросах
      Вы не можете прикреплять файлы к сообщениям
      Вы можете скачивать файлы