Ссылка на приватное зеркало нашего сайта всего за 1$. Внимание количество ограничено!!!

2 сезон

iTunes

1 сезон

1

2 сезон

2 сезон

iTunes

1 сезон

RePack

30

Новинка

ВАЖНО

ИГРА 18+

pack

RePack

MK11
pack

Забери бонус

RePack

jed

!!Акция!!

Alien_Rage

RePack

fifa19

RePack

Assassins Creed: Odyssey

RePack

NEED FOR SPEED™ PAYBACK

4 сезон

9 сезон

Бесстыжие 9 сезон

Все сериалы

все сериалы на PB.wtf

RePack

FAR CRY 5
  

Нация Z / Z Nation / Сезон: 2 / Серии 1-15 из 15 (Джон Хайамс / John Hyams, Тим Эндрю / Tim Andrew, Луис Прието / Luis Prieto) [2015, США, ужасы, фантастика, боевик, WEB-DL 1080p, MVO] [BaibaKo] pb.wtf

Нация Z через торрент pb.wtf

Размер: 26.69 GB | Добавлен: 4 года 11 мес. назад | Торрент скачан:53 раза
Скачать  

13-09-2015 02:51 Нация Z Скачать торрент  

Нация Z / Z Nation


  • Год выпуска: 2015
  • Страна: США
  • Жанр: ужасы, фантастика, боевик, драма
  • Продолжительность: 00:43:02 (Серия)
  • Перевод: Профессиональный многоголосый закадровый [BaibaKo]
  • Режиссер: Джон Хайамс / John Hyams, Тим Эндрю / Tim Andrew, Луис Прието / Luis Prieto
  • В ролях:

    Келлита Смит (Warren), DJ Куаллс (Citizen Z), Кит Аллан (Murphy), Расселл Ходжкинсон (Doc), Писей Пао (Cassandra), Нат Занг (10K), Майкл Уэлш (Mack), Анастасия Баранова (Addy), Том Эверетт Скотт (Garnett), Лиза Коронадо (Dr. Merch), Сали Сейлер (Daisy), Фил Эндрейд (Tattooed Prisoner)

  • Описание:
    Спустя три года после того, как вирус зомби распространился и выпотрошил всю страну, команда героев должна перевезти единственного известного оставшегося в живых от действия чумы из Нью-Йорка в Калифорнию, где последняя функционирующая вирусная лаборатория ждет его крови. Хотя антитела, которые он несет, являются последней надеждой мира получить вакцину, он скрывает мрачную тайну, которая угрожает им всем. Выживание человечества под угрозой, когда разношерстная группа предпринимает путешествие длиной в пять тысяч километров по опустошенной, постапокалиптической Америке.
  • Рейтинг:



  • Качество: WEB-DL 1080p
  • Формат: :MKV
  • Видео кодек: AVC
  • Аудио кодек: AC3
  • Видео: 1920x1080 (16:9), 5027 kbps, 23,976 fps, 0,101 bpp
  • Аудио №1: русский / 5.1 / 48 kHz / 384 kbps / 16 bit |[BaibaKo]|
  • Аудио №2: английский / 5.1 / 48 kHz / 384 kbps / 16 bit
  • Релиз от: GEKADOL

    Код:

    Внимание! Раздача ведётся путём добавления новых серий; при каждом добавлении создаётся новый торрент. Чтобы начать докачку новой серии, пользователям необходимо сделать следующее:
    (1) остановить скачивание,
    (2) удалить старый торрент у себя из клиента (старые серии удалять не надо),
    (3) скачать новый торрент и запустить его у себя в клиенте вместо старого, при этом указать клиенту путь в старую папку куда и должно происходить скачивание новых серий.
    Ваш клиент при этом должен произвести хеширование (проверку) старой папки (если не производит сам - помогите ему сделать это), и будет докачивать только те серии которых у вас ещё нет. Старые серии при этом не удаляются, а продолжают раздаваться!
    Eсли вы уже удалили старые серии, то предотвратить повторную закачку старых серий можно, отжав галочку в соответствующих местах при запуске нового торрента. По возможности, желательно не удалять старые серии как можно дольше чтобы релизёр не столько продолжал раздавать старые серии, а смог сконцентрироваться на новых.


    Код:

    General
    Unique ID                                : 207858546398028536868072990740998216170 (0x9C6019911C8F2B59A58C93DDAF2759EA)
    Complete name                            : H:\Z.Nation (S02) D1080p BaibaKo\Z.Nation.s02e01.HD1080p.WEB-DL.Rus.Eng.BaibaKo.tv.mkv
    Format                                   : Matroska
    Format version                           : Version 4 / Version 2
    File size                                : 1.78 GiB
    Duration                                 : 43mn 2s
    Overall bit rate                         : 5 914 Kbps
    Encoded date                             : UTC 2015-09-12 19:09:44
    Writing application                      : mkvmerge v8.3.0 ('Over the Horizon') 64bit
    Writing library                          : libebml v1.3.1 + libmatroska v1.4.2
    DURATION                                 : 00:43:02.016000000
    NUMBER_OF_FRAMES                         : 80688
    NUMBER_OF_BYTES                          : 123936768
    _STATISTICS_WRITING_APP                  : mkvmerge v8.3.0 ('Over the Horizon') 64bit
    _STATISTICS_WRITING_DATE_UTC             : 2015-09-12 19:09:44
    _STATISTICS_TAGS                         : BPS DURATION NUMBER_OF_FRAMES NUMBER_OF_BYTES

    Video
    ID                                       : 1
    Format                                   : AVC
    Format/Info                              : Advanced Video Codec
    Format profile                           : High@L4.0
    Format settings, CABAC                   : Yes
    Format settings, ReFrames                : 4 frames
    Codec ID                                 : V_MPEG4/ISO/AVC
    Duration                                 : 43mn 2s
    Bit rate                                 : 5 028 Kbps
    Width                                    : 1 920 pixels
    Height                                   : 1 080 pixels
    Display aspect ratio                     : 16:9
    Frame rate                               : 23.976 fps
    Color space                              : YUV
    Chroma subsampling                       : 4:2:0
    Bit depth                                : 8 bits
    Scan type                                : Progressive
    Bits/(Pixel*Frame)                       : 0.101
    Stream size                              : 1.51 GiB (85%)
    Language                                 : English
    Default                                  : Yes
    Forced                                   : No
    Color primaries                          : BT.709-5, BT.1361, IEC 61966-2-4, SMPTE RP177
    Transfer characteristics                 : BT.709-5, BT.1361
    Matrix coefficients                      : BT.709-5, BT.1361, IEC 61966-2-4 709, SMPTE RP177

    Audio #1
    ID                                       : 2
    Format                                   : AC-3
    Format/Info                              : Audio Coding 3
    Mode extension                           : CM (complete main)
    Codec ID                                 : A_AC3
    Duration                                 : 43mn 2s
    Bit rate mode                            : Constant
    Bit rate                                 : 384 Kbps
    Channel(s)                               : 6 channels
    Channel positions                        : Front: L C R, Side: L R, LFE
    Sampling rate                            : 48.0 KHz
    Bit depth                                : 16 bits
    Compression mode                         : Lossy
    Stream size                              : 118 MiB (6%)
    Language                                 : Russian
    Default                                  : Yes
    Forced                                   : No

    Audio #2
    ID                                       : 3
    Format                                   : AC-3
    Format/Info                              : Audio Coding 3
    Mode extension                           : CM (complete main)
    Codec ID                                 : A_AC3
    Duration                                 : 43mn 2s
    Bit rate mode                            : Constant
    Bit rate                                 : 384 Kbps
    Channel(s)                               : 6 channels
    Channel positions                        : Front: L C R, Side: L R, LFE
    Sampling rate                            : 48.0 KHz
    Bit depth                                : 16 bits
    Compression mode                         : Lossy
    Stream size                              : 118 MiB (6%)
    Language                                 : English
    Default                                  : No
    Forced                                   : No




    Скриншоты:
    скриншот   скриншот   скриншот   скриншот   скриншот   скриншот  
    скриншот  

    Раздача ведётся путём добавления новых серий. Добавлена 15 серия (22.12.2015).Просьба перекачать торрент файл.

    pb.wtf



  • Скачать Нация Z через торрент http://i6.imageban.ru/out/2015/09/13/ae7f5a011df64e6da5430d43ea9dc440.jpg Скачать фильм Нация Z через торрент бесплантно в хорошем качестве Описание: Спустя три года после того, как вирус зомби распространился и выпотрошил всю страну, команда героев должна перевезти ... 9.1 10 21
    Info! Золотая раздача, скачанное не засчитывается.
    Торрент: Зарегистрирован [2015-12-22 01:14] · скачан: 53 раз
    Статус: √ проверено
    Размер: 26.69 GB
    Как cкачать? Как скачать Нация Z через торрент | qTorrent

    % Раздел Тема Автор DL S | L
    Зарубежные сериалы [ 14.12 GB ] Нация Z / Z Nation / Сезон: 2 / Серии 1-15 из 15 [2015 WEB-DLRip-AVC MVO] [BaibaKo] GEKADOL Скачать
    1 | 0
    Зарубежные сериалы [ 8.51 GB ] Нация Z / Z Nation / Сезон: 2 / Серии 1-15 из 15 [2015 WEB-DLRip MVO] [BaibaKo] GEKADOL Скачать
    1 | 0
    Зарубежные сериалы [ 8.52 GB ] Нация Z / Z Nation / Сезон: 2 / Серии: 1-6 из 13 [2015 WEB-DL 720р] MVO Baibako diletant Скачать
    1 | 0
    Зарубежные сериалы [ 10.67 GB ] Нация Z / Z Nation / Сезон: 2 / Серии 1-6 из 13 [2015 WEB-DL 1080p] MVO - LostFilm Newton5 Скачать
    1 | 0
    Зарубежные сериалы [ 4.45 GB ] Нация Z / Z Nation / Сезон: 2 / Серии: 1-7 из 13 [2015 WEB-DLRip] MVO LostFilm diletant Скачать
    1 | 0


    Последний раз редактировалось: GEKADOL (2015-12-22 01:14), всего редактировалось 3 раз(а)

    28-11-2019 20:33  

    Отключить всю рекламу на сайте

    03-12-2015 03:50 Нация Z Скачать торрент  

    На 4.pb.wtf



    07-12-2015 10:50 Нация Z Скачать торрент  

    а серий разве не 15 ?pb.wtf



    25-12-2015 13:41 Нация Z Скачать торрент  

    отличный сериалpb.wtf



    02-01-2016 15:56 Нация Z Скачать торрент  

    Благодарю человечек спасибо за труды твои, и вообще хочу поздравить с новым годом (всех благ , счастья и добра)
    pb.wtf



      Дорогой пользователь! Огромная просьба, поблагодарите релизера, оцените раздачу и оставьте свои комментарий, если Вы скачали Нация Z через торрент бесплатно! Внесите свою лепту в развитие PiratBit!
      Комментировать посты могут только пользователи прошедшие не сложную регистрацию
      Показать сообщения:    

      Нация Z через торрент
      Скачать бесплатно Нация Z
      Нация Z скачать торрент
      Нация Z смотреть онлайн
      Cкачать фильм Нация Z бесплатно
      Нация Z скачать торрент в хорошем качестве
      Нация Z смотреть онлайн бесплатно в хорошем качестве


      Вы не можете начинать темы
      Вы не можете отвечать на сообщения
      Вы не можете редактировать свои сообщения
      Вы не можете удалять свои сообщения
      Вы не можете голосовать в опросах
      Вы не можете прикреплять файлы к сообщениям
      Вы можете скачивать файлы