Ссылка на приватное зеркало нашего сайта всего за 1$. Внимание количество ограничено!!!

2 сезон

iTunes

1 сезон

1

2 сезон

2 сезон

iTunes

1 сезон

RePack

30

Новинка

ВАЖНО

ИГРА 18+

pack

RePack

MK11
pack

Забери бонус

RePack

jed

!!Акция!!

Alien_Rage

RePack

fifa19

RePack

Assassins Creed: Odyssey

RePack

NEED FOR SPEED™ PAYBACK

4 сезон

9 сезон

Бесстыжие 9 сезон

Все сериалы

все сериалы на PB.wtf

RePack

FAR CRY 5
  

Нация Z / Z Nation / Сезон: 2 / Серии 1-15 из 15 (Джон Хайамс / John Hyams, Тим Эндрю / Tim Andrew, Луис Прието / Luis Prieto) [2015, США, ужасы, фантастика, боевик, WEB-DLRip, MVO] [BaibaKo] pb.wtf

Нация Z через торрент pb.wtf

Размер: 8.51 GB | Добавлен: 4 года 11 мес. назад | Торрент скачан:196 раз
Скачать  

13-09-2015 02:57 Нация Z Скачать торрент  

Нация Z / Z Nation


  • Год выпуска: 2015
  • Страна: США
  • Жанр: ужасы, фантастика, боевик, драма
  • Продолжительность: 00:43:02 (Серия)
  • Перевод: Профессиональный многоголосый закадровый [BaibaKo]
  • Режиссер: Джон Хайамс / John Hyams, Тим Эндрю / Tim Andrew, Луис Прието / Luis Prieto
  • В ролях:

    Келлита Смит (Warren), DJ Куаллс (Citizen Z), Кит Аллан (Murphy), Расселл Ходжкинсон (Doc), Писей Пао (Cassandra), Нат Занг (10K), Майкл Уэлш (Mack), Анастасия Баранова (Addy), Том Эверетт Скотт (Garnett), Лиза Коронадо (Dr. Merch), Сали Сейлер (Daisy), Фил Эндрейд (Tattooed Prisoner)

  • Описание:
    Спустя три года после того, как вирус зомби распространился и выпотрошил всю страну, команда героев должна перевезти единственного известного оставшегося в живых от действия чумы из Нью-Йорка в Калифорнию, где последняя функционирующая вирусная лаборатория ждет его крови. Хотя антитела, которые он несет, являются последней надеждой мира получить вакцину, он скрывает мрачную тайну, которая угрожает им всем. Выживание человечества под угрозой, когда разношерстная группа предпринимает путешествие длиной в пять тысяч километров по опустошенной, постапокалиптической Америке.
  • Рейтинг:



  • Качество: WEB-DLRip
  • Формат: :AVI
  • Видео кодек: XviD
  • Аудио кодек: MP3
  • Видео: 720x400 (16:9), 1493 kbps, 23,976 fps, 0,216 bpp
  • Аудио №1: Русский 2.0 / 48 kHz / 128 kbps
  • Аудио №2: Английский 2.0 / 48 kHz / 128 kbps
  • Релиз от: GEKADOL

    Код:

    Внимание! Раздача ведётся путём добавления новых серий; при каждом добавлении создаётся новый торрент. Чтобы начать докачку новой серии, пользователям необходимо сделать следующее:
    (1) остановить скачивание,
    (2) удалить старый торрент у себя из клиента (старые серии удалять не надо),
    (3) скачать новый торрент и запустить его у себя в клиенте вместо старого, при этом указать клиенту путь в старую папку куда и должно происходить скачивание новых серий.
    Ваш клиент при этом должен произвести хеширование (проверку) старой папки (если не производит сам - помогите ему сделать это), и будет докачивать только те серии которых у вас ещё нет. Старые серии при этом не удаляются, а продолжают раздаваться!
    Eсли вы уже удалили старые серии, то предотвратить повторную закачку старых серий можно, отжав галочку в соответствующих местах при запуске нового торрента. По возможности, желательно не удалять старые серии как можно дольше чтобы релизёр не столько продолжал раздавать старые серии, а смог сконцентрироваться на новых.


    Код:

    General
    Complete name                            : H:\Z.Nation.s02e01.BaibaKo.avi
    Format                                   : AVI
    Format/Info                              : Audio Video Interleave
    File size                                : 543 MiB
    Duration                                 : 43mn 2s
    Overall bit rate                         : 1 764 Kbps
    Writing application                      : VirtualDubMod 1.5.10.3 | www.virtualdub-fr.org || (build 2550/release)
    Writing library                          : VirtualDubMod build 2550/release

    Video
    ID                                       : 0
    Format                                   : MPEG-4 Visual
    Format profile                           : Advanced Simple@L5
    Format settings, BVOP                    : 2
    Format settings, QPel                    : No
    Format settings, GMC                     : No warppoints
    Format settings, Matrix                  : Default (MPEG)
    Codec ID                                 : XVID
    Codec ID/Hint                            : XviD
    Duration                                 : 43mn 2s
    Bit rate                                 : 1 494 Kbps
    Width                                    : 720 pixels
    Height                                   : 400 pixels
    Display aspect ratio                     : 16:9
    Frame rate                               : 23.976 fps
    Color space                              : YUV
    Chroma subsampling                       : 4:2:0
    Bit depth                                : 8 bits
    Scan type                                : Progressive
    Compression mode                         : Lossy
    Bits/(Pixel*Frame)                       : 0.216
    Stream size                              : 460 MiB (85%)
    Writing library                          : XviD 73

    Audio #1
    ID                                       : 1
    Format                                   : MPEG Audio
    Format version                           : Version 1
    Format profile                           : Layer 3
    Mode                                     : Joint stereo
    Mode extension                           : MS Stereo
    Codec ID                                 : 55
    Codec ID/Hint                            : MP3
    Duration                                 : 43mn 2s
    Bit rate mode                            : Constant
    Bit rate                                 : 128 Kbps
    Channel(s)                               : 2 channels
    Sampling rate                            : 48.0 KHz
    Compression mode                         : Lossy
    Stream size                              : 39.4 MiB (7%)
    Alignment                                : Aligned on interleaves
    Interleave, duration                     : 42 ms (1.00 video frame)
    Interleave, preload duration             : 504 ms

    Audio #2
    ID                                       : 2
    Format                                   : MPEG Audio
    Format version                           : Version 1
    Format profile                           : Layer 3
    Mode                                     : Joint stereo
    Mode extension                           : MS Stereo
    Codec ID                                 : 55
    Codec ID/Hint                            : MP3
    Duration                                 : 43mn 2s
    Bit rate mode                            : Constant
    Bit rate                                 : 128 Kbps
    Channel(s)                               : 2 channels
    Sampling rate                            : 48.0 KHz
    Compression mode                         : Lossy
    Stream size                              : 39.4 MiB (7%)
    Alignment                                : Aligned on interleaves
    Interleave, duration                     : 42 ms (1.00 video frame)
    Interleave, preload duration             : 504 ms




    Скриншоты:
    скриншот   скриншот   скриншот   скриншот   скриншот   скриншот  
    скриншот  

    Раздача ведётся путём добавления новых серий. Добавлена 15 серия (22.12.2015).Просьба перекачать торрент файл.

    pb.wtf



  • Скачать Нация Z через торрент http://i1.imageban.ru/out/2015/09/13/f1d46afc370a3af75ac5ab0dd1146e56.jpg Скачать фильм Нация Z через торрент бесплантно в хорошем качестве Описание: Спустя три года после того, как вирус зомби распространился и выпотрошил всю страну, команда героев должна перевезти ... 9.5 10 28
    Info! Золотая раздача, скачанное не засчитывается.
    Торрент: Зарегистрирован [2015-12-22 02:06] · скачан: 196 раз
    Статус: √ проверено
    Размер: 8.51 GB
    Как cкачать? Как скачать Нация Z через торрент | qTorrent

    % Раздел Тема Автор DL S | L
    Зарубежные сериалы [ 26.69 GB ] Нация Z / Z Nation / Сезон: 2 / Серии 1-15 из 15 [2015 WEB-DL 1080p MVO] [BaibaKo] GEKADOL Скачать
    1 | 0
    Зарубежные сериалы [ 14.12 GB ] Нация Z / Z Nation / Сезон: 2 / Серии 1-15 из 15 [2015 WEB-DLRip-AVC MVO] [BaibaKo] GEKADOL Скачать
    1 | 0
    Зарубежные сериалы [ 8.52 GB ] Нация Z / Z Nation / Сезон: 2 / Серии: 1-6 из 13 [2015 WEB-DL 720р] MVO Baibako diletant Скачать
    1 | 0
    Зарубежные сериалы [ 10.67 GB ] Нация Z / Z Nation / Сезон: 2 / Серии 1-6 из 13 [2015 WEB-DL 1080p] MVO - LostFilm Newton5 Скачать
    1 | 0
    Зарубежные сериалы [ 4.45 GB ] Нация Z / Z Nation / Сезон: 2 / Серии: 1-7 из 13 [2015 WEB-DLRip] MVO LostFilm diletant Скачать
    1 | 0


    Последний раз редактировалось: GEKADOL (2015-12-22 02:06), всего редактировалось 12 раз(а)

    28-11-2019 20:33  

    Отключить всю рекламу на сайте

    13-09-2015 04:00 Нация Z Скачать торрент  

    респектон и уважуха за оперативность.pb.wtf



    13-09-2015 04:09 Нация Z Скачать торрент  

    MelodyMan писал(а):

    респектон и уважуха за оперативность.

    Спасибо! pb.wtf



    13-09-2015 05:07 Нация Z Скачать торрент  

    зашибись, что актера играющего "надежду человечества" не сменили. харизматичнейший дядька, чуть-ли не в одного сериал вывозит)) спс за раздачуpb.wtf



    10-11-2015 07:53 Нация Z Скачать торрент  

    зомбятинаpb.wtf



    27-11-2015 16:29 Нация Z Скачать торрент  

    Доброе время суток! Уже 3 недели нет 10 серии. Очень ждем всей семьей. :-)pb.wtf



    02-12-2015 17:44 Нация Z Скачать торрент  

    СПАСИБО!!! :yu:pb.wtf



    14-12-2015 04:02 Нация Z Скачать торрент  

    Крутой сериал про зомби.смотрите не пожалеете.pb.wtf



      Дорогой пользователь! Огромная просьба, поблагодарите релизера, оцените раздачу и оставьте свои комментарий, если Вы скачали Нация Z через торрент бесплатно! Внесите свою лепту в развитие PiratBit!
      Комментировать посты могут только пользователи прошедшие не сложную регистрацию
      Показать сообщения:    

      Нация Z через торрент
      Скачать бесплатно Нация Z
      Нация Z скачать торрент
      Нация Z смотреть онлайн
      Cкачать фильм Нация Z бесплатно
      Нация Z скачать торрент в хорошем качестве
      Нация Z смотреть онлайн бесплатно в хорошем качестве


      Вы не можете начинать темы
      Вы не можете отвечать на сообщения
      Вы не можете редактировать свои сообщения
      Вы не можете удалять свои сообщения
      Вы не можете голосовать в опросах
      Вы не можете прикреплять файлы к сообщениям
      Вы можете скачивать файлы