Ссылка на приватное зеркало всего за 1$. Внимание количество ограничено!!!

iTunes

iTunes

iTunes

1

iTunes

iTunes

iTunes

iTunes

iTunes

30
pack

$ от Little Big

ВАЖНО

!!Акция!!

Alien_RageХит недели

RePack

Resident Evil 21

ИГРА 18+

pack

RePack

jed

!!Акция!!

Alien_Rage

RePack

fifa19

RePack

Assassins Creed: Odyssey

RePack

NEED FOR SPEED™ PAYBACK

4 сезон

9 сезон

Бесстыжие 9 сезон

Все сериалы

все сериалы на PB.wtf

RePack

FAR CRY 5
  

Я здесь / I Am Here (Андерс Моргенталер) [2014, Драма, триллер, WEB-DLRip 720p] VO pb.wtf

Я здесь через торрент pb.wtf

Размер: 2.48 GB | Добавлен: 4 года 9 мес. назад | Торрент скачан:92 раза
Скачать  

13-09-2015 06:01 Я здесь Скачать торрент  

Название: Я здесь

Оригинальное название: I Am Here

Год выпуска: 2014

Жанр: Драма, триллер

Продолжительность: 01:33:41

Озвучивание: Любительское (одноголосое) [R.A.I.M]

Выпущено: Германия, Дания, ONE TWO Films, Viking Brothers Entertainment

Режиссер: Андерс Моргенталер

В ролях: Ким Бейсингер, Джордан Прентис, Себастьян Шиппер, Петер Стормаре, Роберт Хунгер-Бюлер, Анук Вагенер, Нина Фог, Сабина Хаупт, Филипп Хохмайр, Норман Хаккер

Описание: Успешная предпринимательница Мария достигла всего, кроме самого желаемого - собственного ребенка. Она решает претворить это в жизнь сама и отправляется в отчаянное и опасное путешествие, чтобы исполнить свою мечту.


Качество: WEB-DLRip 720p
Формат: MKV
Видео кодек: AVC
Аудио кодек: AC3
Видео: AVC, 1280x544 (2.35:1), 25.000 fps, 3 213 Kbps (0.185 bit/pixel)
Аудио #1: AC-3, 48.0 KHz, 2 ch, 192 Kbps, CBR (Russian)
Аудио #2: AC-3, 48.0 KHz, 6 ch, 384 Kbps, CBR (English)

Семпл
Общее
Уникальный идентификатор : 223831928843158763315298537456688571385 (0xA864762012C1C4DEA75BA2D106FE23F9)
Полное имя : D:\Торенты\Ja.3des1.2014.L1.WEB-DL.720p.mkv
Формат : Matroska
Версия формата : Version 4 / Version 2
Размер файла : 2,48 Гбайт
Продолжительность : 1 ч. 33 м.
Общий поток : 3790 Кбит/сек
Дата кодирования : UTC 2015-09-12 17:07:57
Программа кодирования : mkvmerge v6.5.0 ('Isn't she lovely') built on Oct 20 2013 12:50:05
Библиотека кодирования : libebml v1.3.0 + libmatroska v1.4.1

Видео
Идентификатор : 1
Формат : AVC
Формат/Информация : Advanced Video Codec
Профиль формата : High@L4.1
Параметр CABAC формата : Да
Параметр ReFrames формата : 4 кадра
Идентификатор кодека : V_MPEG4/ISO/AVC
Продолжительность : 1 ч. 33 м.
Битрейт : 3213 Кбит/сек
Ширина : 1280 пикселей
Высота : 544 пикселя
Соотношение сторон : 2,35:1
Режим частоты кадров : Постоянный
Частота кадров : 25,000 кадров/сек
Цветовое пространство : YUV
Субдискретизация насыщенности : 4:2:0
Битовая глубина : 8 бит
Тип развёртки : Прогрессивная
Бит/(Пиксели*Кадры) : 0.185
Размер потока : 2,05 Гбайт (83%)
Заголовок : The.11th.Hour.UNRATED.2014.720p.WEBRiP.AC3.x264-SiMPLE
Библиотека кодирования : x264 core 146 r2538 121396c
Настройки программы : cabac=1 / ref=3 / deblock=1:-3:-3 / analyse=0x3:0x113 / me=hex / subme=7 / psy=1 / psy_rd=1.00:0.15 / mixed_ref=1 / me_range=16 / chroma_me=1 / trellis=2 / 8x8dct=1 / cqm=0 / deadzone=21,11 / fast_pskip=1 / chroma_qp_offset=-3 / threads=7 / lookahead_threads=1 / sliced_threads=0 / nr=0 / decimate=1 / interlaced=0 / bluray_compat=0 / constrained_intra=0 / bframes=6 / b_pyramid=2 / b_adapt=2 / b_bias=0 / direct=1 / weightb=1 / open_gop=0 / weightp=2 / keyint=250 / keyint_min=25 / scenecut=40 / intra_refresh=0 / rc_lookahead=60 / rc=2pass / mbtree=1 / bitrate=3213 / ratetol=1.0 / qcomp=0.60 / qpmin=0 / qpmax=69 / qpstep=4 / cplxblur=20.0 / qblur=0.5 / vbv_maxrate=30000 / vbv_bufsize=38000 / nal_hrd=none / filler=0 / ip_ratio=1.40 / aq=1:1.00
Язык : English
Default : Да
Forced : Нет
Основные цвета : BT.709
Характеристики трансфера : BT.709
Коэффициенты матрицы : BT.709
colour_range : Limited

Аудио #1
Идентификатор : 2
Формат : AC-3
Формат/Информация : Audio Coding 3
Расширение режима : CM (complete main)
Параметр Endianness формата : Big
Идентификатор кодека : A_AC3
Продолжительность : 1 ч. 33 м.
Вид битрейта : Постоянный
Битрейт : 192 Кбит/сек
Каналы : 2 канала
Расположение каналов : Front: L R
Частота : 48,0 КГц
Битовая глубина : 16 бит
Метод сжатия : С потерями
Размер потока : 129 Мбайт (5%)
Язык : Russian
Default : Да
Forced : Нет

Аудио #2
Идентификатор : 3
Формат : AC-3
Формат/Информация : Audio Coding 3
Расширение режима : CM (complete main)
Параметр Endianness формата : Big
Идентификатор кодека : A_AC3
Продолжительность : 1 ч. 33 м.
Вид битрейта : Постоянный
Битрейт : 384 Кбит/сек
Каналы : 6 каналов
Расположение каналов : Front: L C R, Side: L R, LFE
Частота : 48,0 КГц
Битовая глубина : 16 бит
Метод сжатия : С потерями
Размер потока : 257 Мбайт (10%)
Язык : English
Default : Нет
Forced : Нет

Меню
00:00:00.000 : en:Chapter 1
00:10:29.000 : en:Chapter 2
00:20:26.000 : en:Chapter 3
00:30:15.000 : en:Chapter 4
00:40:19.000 : en:Chapter 5
00:51:25.000 : en:Chapter 6
00:59:52.000 : en:Chapter 7
01:09:38.000 : en:Chapter 8
01:18:14.000 : en:Chapter 9
01:29:21.000 : en:Chapter 10
pb.wtf



Скачать Я здесь через торрент http://i017.radikal.ru/1509/b4/ac48ddc1e9ab.jpg Скачать фильм Я здесь через торрент бесплантно в хорошем качестве Описание: Успешная предпринимательница Мария достигла всего, кроме самого желаемого - собственного ребенка. Она решает претворить это в ... 10 10 5
Торрент: Зарегистрирован [2015-09-13 06:01] · скачан: 92 раз
Статус: T временная
Размер: 2.48 GB
Как cкачать? Как скачать Я здесь через торрент | qTorrent

% Раздел Тема Автор DL S | L
T Фильмы 2014 (Звук TS, Cam, VO, DVO) [ 1.38 GB ] Я здесь / I Am Here [2014 WEB-DLRip] VO Ворон Скачать
1 | 0

28-11-2019 20:33  

Отключить всю рекламу на сайте

13-09-2015 07:06 Я здесь Скачать торрент  

смотри-ка-старушка бейсингер еще снимается-заценим-спасибоpb.wtf



13-09-2015 11:37 Я здесь Скачать торрент  

бабка в новом амплуа?pb.wtf



    Дорогой пользователь! Огромная просьба, поблагодарите релизера, оцените раздачу и оставьте свои комментарий, если Вы скачали Я здесь через торрент бесплатно! Внесите свою лепту в развитие PiratBit!
    Комментировать посты могут только пользователи прошедшие не сложную регистрацию
    Показать сообщения:    

    Я здесь через торрент
    Скачать бесплатно Я здесь
    Я здесь скачать торрент
    Я здесь смотреть онлайн
    Cкачать фильм Я здесь бесплатно
    Я здесь скачать торрент в хорошем качестве
    Я здесь смотреть онлайн бесплатно в хорошем качестве


    Вы не можете начинать темы
    Вы не можете отвечать на сообщения
    Вы не можете редактировать свои сообщения
    Вы не можете удалять свои сообщения
    Вы не можете голосовать в опросах
    Вы не можете прикреплять файлы к сообщениям
    Вы можете скачивать файлы