Ссылка на приватное зеркало нашего сайта всего за 1$. Внимание количество ограничено!!!

2 сезон

iTunes

1 сезон

1

iTunes

iTunes

iTunes

1 сезон

RePack

30

ИГРА 18+

pack

ВАЖНО

!!Акция!!

Alien_RageХит недели

RePack

MK11
pack

Забери бонус

RePack

jed

!!Акция!!

Alien_Rage

RePack

fifa19

RePack

Assassins Creed: Odyssey

RePack

NEED FOR SPEED™ PAYBACK

4 сезон

9 сезон

Бесстыжие 9 сезон

Все сериалы

все сериалы на PB.wtf

RePack

FAR CRY 5
  

Набережная Орсе / Quai d'Orsay (Бертран Тавернье) [2013, комедия, BDRip 720p, Профессиональный многоголосый [официальный звук] pb.wtf

Набережная Орсе через торрент pb.wtf

Размер: 5.62 GB | Добавлен: 5 лет 1 мес. назад | Торрент скачан:56 раз
Скачать  

13-09-2015 09:02 Набережная Орсе Скачать торрент  


Набережная Орсе / Quai d'Orsay


ИНФОРМАЦИЯ:
Год выпуска:2013
Страна: Франция
Жанр: комедия
Продолжительность: 01:53:54
Перевод: Профессиональный многоголосый [официальный звук]
Режиссер: Бертран Тавернье

В Ролях:


Тьерри Лермитт (Alexandre Taillard de Worms), Рафаэль Персонас (Arthur Vlaminck), Нильс Ареструп (Claude Maupas), Бруно Раффаэлли (Stéphane Cahut), Жюли Гайе (Valérie Dumontheil), Анаис Демустье (Marina), Тома Шаброль (Sylvain Marquet), Тьерри Фремон (Guillaume Van Effentem), Аликс Пуасон (Odile), Мари Бюнель (Martine), Жан-Марк Руло (Bertrand Castela), Соня Роллан (Nathalie)

Описание:
Молодой выпускник вуза Артур Вламинк получает в министерстве иностранных дел на набережной Орсе должность помощника министра. Теперь в его обязанности будет входить написание речей для выступлений министра на различных деловых встречах и мероприятиях. Проработав там некоторое время, он видит интриги и "подковёрную" борьбу между сотрудниками министерства за должности. И, если бы не такие сотрудники как Клод, который фактически днюет и ночует на работе вместе со своим котом, то работа представительного ведомства просто превратилась бы в хаос.

  • Мировая премьера:27 августа 2013

    ТЕХ.ДАННЫЕ:
    Качество: BDRip 720p
    Формат: MKV
    Видео: AVC, 1280x696 (16:9), 5355 kbps, 24 fps, 0,250 bpp
    Аудио №1: русский / AC3 / 2.0 / 48 kHz / 192 kbps / 16 bit ||
    Аудио №2: французский / DTS / 5.1 / 48 kHz / 1510 kbps / 24 bit
    Навигация по главам: есть


    General
    Unique ID : 202825354639500553396666023262983599273 (0x9896BE0DCD932433B9546AE1E498B4A9)
    Complete name : D:\Торенты\Naberezhnaya.Orse.2013.P.BDRip.720p.mkv
    Format : Matroska
    Format version : Version 4 / Version 2
    File size : 5.62 GiB
    Duration : 1h 53mn
    Overall bit rate : 7 057 Kbps
    Encoded date : UTC 2015-09-12 18:09:13
    Writing application : mkvmerge v8.2.0 ('World of Adventure') 64bit
    Writing library : libebml v1.3.1 + libmatroska v1.4.2

    Video
    ID : 1
    Format : AVC
    Format/Info : Advanced Video Codec
    Format profile : High@L3.1
    Format settings, CABAC : Yes
    Format settings, ReFrames : 5 frames
    Codec ID : V_MPEG4/ISO/AVC
    Duration : 1h 53mn
    Bit rate : 5 355 Kbps
    Width : 1 280 pixels
    Height : 696 pixels
    Display aspect ratio : 16:9
    Frame rate : 24.000 fps
    Color space : YUV
    Chroma subsampling : 4:2:0
    Bit depth : 8 bits
    Scan type : Progressive
    Bits/(Pixel*Frame) : 0.250
    Stream size : 4.15 GiB (74%)
    Writing library : x264 core 142 r2389 956c8d8
    Encoding settings : cabac=1 / ref=5 / deblock=1:0:0 / analyse=0x3:0x133 / me=umh / subme=8 / psy=1 / psy_rd=1.00:0.00 / mixed_ref=1 / me_range=16 / chroma_me=1 / trellis=1 / 8x8dct=1 / cqm=0 / deadzone=21,11 / fast_pskip=0 / chroma_qp_offset=-2 / threads=18 / lookahead_threads=3 / sliced_threads=0 / nr=0 / decimate=1 / interlaced=0 / bluray_compat=0 / constrained_intra=0 / bframes=3 / b_pyramid=2 / b_adapt=2 / b_bias=0 / direct=3 / weightb=1 / open_gop=0 / weightp=2 / keyint=250 / keyint_min=24 / scenecut=40 / intra_refresh=0 / rc_lookahead=50 / rc=2pass / mbtree=1 / bitrate=5355 / ratetol=1.0 / qcomp=0.60 / qpmin=0 / qpmax=69 / qpstep=4 / cplxblur=20.0 / qblur=0.5 / ip_ratio=1.40 / aq=1:1.00
    Language : English
    Default : Yes
    Forced : No

    Audio #1
    ID : 2
    Format : AC-3
    Format/Info : Audio Coding 3
    Mode extension : CM (complete main)
    Codec ID : A_AC3
    Duration : 1h 53mn
    Bit rate mode : Constant
    Bit rate : 192 Kbps
    Channel(s) : 2 channels
    Channel positions : Front: L R
    Sampling rate : 48.0 KHz
    Bit depth : 16 bits
    Compression mode : Lossy
    Stream size : 156 MiB (3%)
    Language : Russian
    Default : Yes
    Forced : Yes

    Audio #2
    ID : 3
    Format : DTS
    Format/Info : Digital Theater Systems
    Codec ID : A_DTS
    Duration : 1h 53mn
    Bit rate mode : Constant
    Bit rate : 1 510 Kbps
    Channel(s) : 6 channels
    Channel positions : Front: L C R, Side: L R, LFE
    Sampling rate : 48.0 KHz
    Bit depth : 24 bits
    Compression mode : Lossy
    Stream size : 1.20 GiB (21%)
    Title : DTS 5.1
    Language : French
    Default : No
    Forced : No

    Menu
    00:00:00.000 : en:00:00:00.000
    00:09:34.250 : en:00:09:34.250
    00:16:56.333 : en:00:16:56.333
    00:27:51.167 : en:00:27:51.167
    00:31:44.125 : en:00:31:44.125
    00:36:52.083 : en:00:36:52.083
    00:44:53.708 : en:00:44:53.708
    00:52:58.333 : en:00:52:58.333
    00:57:42.125 : en:00:57:42.125
    01:06:12.917 : en:01:06:12.917
    01:10:02.542 : en:01:10:02.542
    01:17:58.667 : en:01:17:58.667
    01:23:58.708 : en:01:23:58.708
    01:32:30.833 : en:01:32:30.833
    01:40:03.167 : en:01:40:03.167
    01:50:12.667 : en:01:50:12.667
    Скриншоты:


    © Оформление by Ворон
    pb.wtf



  • Скачать Набережная Орсе через торрент http://pic.kartinco.top/images/6/ordi9.jpg Скачать фильм Набережная Орсе через торрент бесплантно в хорошем качестве Описание: Молодой выпускник вуза Артур Вламинк получает в министерстве иностранных дел на набережной Орсе должность помощника министра. ... 10 10 4
    Торрент: Зарегистрирован [2015-09-13 09:02] · скачан: 56 раз
    Статус: T временная
    Размер: 5.62 GB
    Как cкачать? Как скачать Набережная Орсе через торрент | qTorrent

    28-11-2019 20:33  

    Отключить всю рекламу на сайте

      Дорогой пользователь! Огромная просьба, поблагодарите релизера, оцените раздачу и оставьте свои комментарий, если Вы скачали Набережная Орсе через торрент бесплатно! Внесите свою лепту в развитие PiratBit!
      Комментировать посты могут только пользователи прошедшие не сложную регистрацию
      Показать сообщения:    

      Набережная Орсе через торрент
      Скачать бесплатно Набережная Орсе
      Набережная Орсе скачать торрент
      Набережная Орсе смотреть онлайн
      Cкачать фильм Набережная Орсе бесплатно
      Набережная Орсе скачать торрент в хорошем качестве
      Набережная Орсе смотреть онлайн бесплатно в хорошем качестве


      Вы не можете начинать темы
      Вы не можете отвечать на сообщения
      Вы не можете редактировать свои сообщения
      Вы не можете удалять свои сообщения
      Вы не можете голосовать в опросах
      Вы не можете прикреплять файлы к сообщениям
      Вы можете скачивать файлы