Ссылка на приватное зеркало нашего сайта всего за 1$. Внимание количество ограничено!!!

2 сезон

iTunes

1 сезон

1

iTunes

iTunes

iTunes

1 сезон

RePack

30

ИГРА 18+

pack

ВАЖНО

!!Акция!!

Alien_RageХит недели

RePack

MK11
pack

Забери бонус

RePack

jed

!!Акция!!

Alien_Rage

RePack

fifa19

RePack

Assassins Creed: Odyssey

RePack

NEED FOR SPEED™ PAYBACK

4 сезон

9 сезон

Бесстыжие 9 сезон

Все сериалы

все сериалы на PB.wtf

RePack

FAR CRY 5
  

Курназ – Пять лет жизни / Kurnaz - Fünf Jahre Leben (Стефан Шаллер) [2013, драма, HDTVRip, Любительский (двухголосый)[datynet & Galina Vasyukova] pb.wtf

Курназ – Пять лет жизни через торрент pb.wtf

Размер: 1.37 GB | Добавлен: 5 лет 1 мес. назад | Торрент скачан:24 раза
Скачать  

13-09-2015 09:05 Курназ – Пять лет жизни Скачать торрент  


Курназ – Пять лет жизни / Kurnaz - Fünf Jahre Leben


ИНФОРМАЦИЯ:
Год выпуска:2013
Страна: Германия, Франция
Жанр: драма
Продолжительность: 01:31:56
Перевод: Любительский (двухголосый)[datynet & Galina Vasyukova]
Режиссер: Стефан Шаллер

В Ролях:


Sacha Alexander Gershak (Murat Kurnaz), Бен Майлз (Gail Holford), Марк Ходапп (PV2. Malone), Özkan Akdogan (Prisoner), Nevzet Akgül (Friend at wedding), Ayfer Akin (Woman at funeral), Sinan Al-Kurikchi (Elyas), Amir Al-Sudani (Soldier), Бахаттин Алкан (Friend at wedding), Зафер Алкан (Prisoner), Engin Ambuluto (Friend at wedding), Озкан Арслан (Prisoner)

Описание:
Фильм рассказывает о судьбе жителя Бремена Мурата Курназа, который пять лет провел в заключении на американской военной базе в Гуантанамо по подозрению в терроризме.

  • Мировая премьера:23 января 2013

    ТЕХ.ДАННЫЕ:
    Качество: HDTVRip
    Формат: AVI
    Видео: XviD, 720x304 (2.35:1), 1852 kbps, 50 fps, 0,169 bpp
    Аудио: AC3 / 2.0 / 48 kHz / 192 kbps / 16 bit


    Общее
    Полное имя : D:\Торенты\Kyrnaz.5.let.zhizni.2013.HDTVRip.avi
    Формат : AVI
    Формат/Информация : Audio Video Interleave
    Размер файла : 1,37 Гбайт
    Продолжительность : 1 ч. 31 м.
    Общий поток : 2138 Кбит/сек
    Программа кодирования : VirtualDubMod 1.5.10.2 (build 2540/release)
    Библиотека кодирования : VirtualDubMod build 2540/release

    Видео
    Идентификатор : 0
    Формат : MPEG-4 Visual
    Профиль формата : Advanced Simple@L5
    Параметр BVOP формата : 2
    Параметр QPel формата : Нет
    Параметр GMC формата : Без точки перехода
    Параметр матрицы формата : Default (MPEG)
    Идентификатор кодека : XVID
    Идентификатор кодека/Подсказка : XviD
    Продолжительность : 1 ч. 31 м.
    Битрейт : 1852 Кбит/сек
    Ширина : 720 пикселей
    Высота : 304 пикселя
    Соотношение сторон : 2,35:1
    Частота кадров : 50,000 кадров/сек
    Цветовое пространство : YUV
    Субдискретизация насыщенности : 4:2:0
    Битовая глубина : 8 бит
    Тип развёртки : Прогрессивная
    Метод сжатия : С потерями
    Бит/(Пиксели*Кадры) : 0.169
    Размер потока : 1,19 Гбайт (87%)
    Библиотека кодирования : XviD 1.2.1 (UTC 2008-12-04)

    Аудио
    Идентификатор : 1
    Формат : AC-3
    Формат/Информация : Audio Coding 3
    Расширение режима : CM (complete main)
    Параметр Endianness формата : Big
    Идентификатор кодека : 2000
    Продолжительность : 1 ч. 31 м.
    Вид битрейта : Постоянный
    Битрейт : 192 Кбит/сек
    Каналы : 2 канала
    Расположение каналов : Front: L R
    Частота : 48,0 КГц
    Битовая глубина : 16 бит
    Метод сжатия : С потерями
    Размер потока : 126 Мбайт (9%)
    Выравнивание : Разделение по промежуткам
    Скриншоты:


    © Оформление by Ворон
    pb.wtf



  • Скачать Курназ – Пять лет жизни через торрент http://pic.kartinco.top/images/6/ordi9.jpg Скачать фильм Курназ – Пять лет жизни через торрент бесплантно в хорошем качестве Описание: Фильм рассказывает о судьбе жителя Бремена Мурата Курназа, который пять лет провел в заключении на американской военной базе в ... 10 10 2
    Торрент: Зарегистрирован [2015-09-13 09:05] · скачан: 24 раз
    Статус: √ проверено
    Размер: 1.37 GB
    Как cкачать? Как скачать Курназ – Пять лет жизни через торрент | qTorrent

    28-11-2019 20:33  

    Отключить всю рекламу на сайте

      Дорогой пользователь! Огромная просьба, поблагодарите релизера, оцените раздачу и оставьте свои комментарий, если Вы скачали Курназ – Пять лет жизни через торрент бесплатно! Внесите свою лепту в развитие PiratBit!
      Комментировать посты могут только пользователи прошедшие не сложную регистрацию
      Показать сообщения:    

      Курназ – Пять лет жизни через торрент
      Скачать бесплатно Курназ – Пять лет жизни
      Курназ – Пять лет жизни скачать торрент
      Курназ – Пять лет жизни смотреть онлайн
      Cкачать фильм Курназ – Пять лет жизни бесплатно
      Курназ – Пять лет жизни скачать торрент в хорошем качестве
      Курназ – Пять лет жизни смотреть онлайн бесплатно в хорошем качестве


      Вы не можете начинать темы
      Вы не можете отвечать на сообщения
      Вы не можете редактировать свои сообщения
      Вы не можете удалять свои сообщения
      Вы не можете голосовать в опросах
      Вы не можете прикреплять файлы к сообщениям
      Вы можете скачивать файлы