2 сезон

iTunes

MVO

1

2 сезон

iTunes

iTunes

1 сезон

RePack

30

Ultimate

ВАЖНО

ИГРА 18+

pack

RePack

MK11
pack

Легкие деньги

RePack

jed

RePack

fifa19

RePack

RDR2

RePack

NEED FOR SPEED™ PAYBACK

4 сезон

9 сезон

Бесстыжие 9 сезон

Все сериалы

все сериалы на PB.wtf

RePack

FAR CRY 5

Anonymous, доброй ночи, мы не успеваем собрать деньги на оплату серверов за декабрь и январь, помогите нам пожалуйста в это трудное время. В качестве благодарности мы отключим Вам всю рекламу на сайте (укажите свой ник в строку Ваше имя)!

×
  
Magnet ссылка

Набережная Орсе / Quai d'Orsay (Бертран Тавернье) [2013 г., комедия, HDRip, Профессиональный многоголосый закадровый "Официальный звук"] pb.wtf

Набережная Орсе через торрент pb.wtf

Размер: 706 MB | Добавлен: 5 лет 4 мес. назад | Торрент скачан:62 раза
Скачать  

13-09-2015 18:22 Набережная Орсе Скачать торрент  

Набережная Орсе / Quai d'Orsay
Год выпуска: 2013
Страна: Франция /Little Bear, Pathé, France 2 Cinéma
Жанр: комедия
Продолжительность: 01:53:54
Перевод: Профессиональный многоголосый закадровый (Официальный звук)

Режиссер: Бертран Тавернье

IMDB 6.30 (1943)


В ролях: Тьерри Лермитт, Рафаэль Персонас, Нильс Ареструп, Бруно Раффаэлли, Жюли Гайе, Анаис Демустье, Тома Шаброль, Тьерри Фремон, Аликс Пуасон, Мари Бюнель

Описание: Молодой выпускник вуза Артур Вламинк получает в министерстве иностранных дел на набережной Орсе должность помощника министра. Теперь в его обязанности будет входить написание речей для выступлений министра на различных деловых встречах и мероприятиях. Проработав там некоторое время, он видит интриги и "подковёрную" борьбу между сотрудниками министерства за должности. И, если бы не такие сотрудники как Клод, который фактически днюет и ночует на работе вместе со своим котом, то работа представительного ведомства просто превратилась бы в хаос.

Качество: HDRip
Формат: AVI
Видео кодек: XviD
Аудио кодек: MP3
Видео: 640x344 (1.86:1), 24.000 fps, XviD build 50 ~729 kbps avg, 0.14 bit/pixel
Аудио: 48 kHz, MPEG Layer 3, 2 ch, ~128.00 kbps avg

Общее
Полное имя : F:\кино\Набережная Орсе.2013.P.HDRip.700mb.avi
Формат : AVI
Формат/Информация : Audio Video Interleave
Размер файла : 706 Мбайт
Продолжительность : 1 ч. 53 м.
Общий поток : 867 Кбит/сек
Программа кодирования : VirtualDubMod 1.5.10.3 | www.virtualdub-fr.org || (build 2550/release)
Библиотека кодирования : VirtualDubMod build 2550/release

Видео
Идентификатор : 0
Формат : MPEG-4 Visual
Профиль формата : Advanced Simple@L5
Параметр BVOP формата : 2
Параметр QPel формата : Нет
Параметр GMC формата : Без точки перехода
Параметр матрицы формата : Default (H.263)
Идентификатор кодека : XVID
Идентификатор кодека/Подсказка : XviD
Продолжительность : 1 ч. 53 м.
Битрейт : 730 Кбит/сек
Ширина : 640 пикселей
Высота : 344 пикселя
Соотношение сторон : 1,85:1
Частота кадров : 24,000 кадра/сек
Цветовое пространство : YUV
Субдискретизация насыщенности : 4:2:0
Битовая глубина : 8 бит
Тип развёртки : Прогрессивная
Метод сжатия : С потерями
Бит/(Пиксели*Кадры) : 0.138
Размер потока : 594 Мбайт (84%)
Библиотека кодирования : XviD 1.2.1 (UTC 2008-12-04)

Аудио
Идентификатор : 1
Формат : MPEG Audio
Версия формата : Version 1
Профиль формата : Layer 3
Режим : Joint stereo
Идентификатор кодека : 55
Идентификатор кодека/Подсказка : MP3
Продолжительность : 1 ч. 53 м.
Вид битрейта : Постоянный
Битрейт : 128 Кбит/сек
Каналы : 2 канала
Частота : 48,0 КГц
Метод сжатия : С потерями
Размер потока : 104 Мбайт (15%)
Выравнивание : Соединение по промежуткам
Продолжительность промежутка : 42 мс. (1,00 видеокадр)
Время предзагрузки промежутка : 504 мс.
Библиотека кодирования : LAME3.99r
Настройки программы : -m j -V 4 -q 2 -lowpass 17 -b 128

pb.wtf



Скачать Набережная Орсе через торрент http://pic1.kartinco.top/images/10/ri59t.jpg Скачать фильм Набережная Орсе через торрент бесплантно в хорошем качестве Описание: Молодой выпускник вуза Артур Вламинк получает в министерстве иностранных дел на набережной Орсе должность помощника министра. ... 10 10 8
Торрент: Зарегистрирован [2015-09-13 18:22] · скачан: 62 раз
Статус: √ проверено
Размер: 706 MB
Как cкачать? Как скачать Набережная Орсе через торрент | UTorrent

28-11-2019 20:33  

Отключить всю рекламу на сайте


13-09-2015 19:29 Набережная Орсе Скачать торрент  

Интересно если Администрация терента допускает к релизу откровеный фильмы о политике что же будет дальше?pb.wtf



13-09-2015 20:30 Набережная Орсе Скачать торрент  

coc900 писал(а):

Жанр: комедия

По вашей логике тут пол трекера надо удалить в разделе худ.фильмы.
Ну и чтоб прояснить Вам политику пиратбита касательно полит.релизов, вот ознакомьтесь http://pb.wtf/topic/145494/
касательно геополитики Российской федерации, политической ситуации в Украине, евроинтеграции, АТО (антитеррористическая операция) в Украине...
А теперь скажите какое отношения фильм этот имеет к данной ситуации в Украине или России???pb.wtf



13-09-2015 20:45 Набережная Орсе Скачать торрент  

Любому гос чиновнику этот фильм покажется обыденной унылостью его скучных рабочих дней...pb.wtf



14-09-2015 01:08 Набережная Орсе Скачать торрент  

"Молодой выпускник вуза получает в министерстве иностранных дел должность помощника министра. Теперь в его обязанности будет входить написание речей для выступлений министра..."
Что за бред? ха-ха, два предложения и два нереальных обстоятельства, сценарист либо школьник, либо олень северный, потерявшейся от Деда Мороза.pb.wtf



14-09-2015 06:50 Набережная Орсе Скачать торрент  

Vlastimir писал(а):

Интересно если Администрация терента допускает к релизу откровеный фильмы о политике что же будет дальше?

Это же художественный фильм, а не документальный.pb.wtf



    Дорогой пользователь! Огромная просьба, поблагодарите релизера, оцените раздачу и оставьте свои комментарий, если Вы скачали Набережная Орсе через торрент бесплатно! Внесите свою лепту в развитие PiratBit!
    Комментировать посты могут только пользователи прошедшие не сложную регистрацию
    Показать сообщения:    

    Набережная Орсе через торрент
    Скачать бесплатно Набережная Орсе
    Набережная Орсе скачать торрент
    Набережная Орсе смотреть онлайн
    Cкачать фильм Набережная Орсе бесплатно
    Набережная Орсе скачать торрент в хорошем качестве
    Набережная Орсе смотреть онлайн бесплатно в хорошем качестве


    Вы не можете начинать темы
    Вы не можете отвечать на сообщения
    Вы не можете редактировать свои сообщения
    Вы не можете удалять свои сообщения
    Вы не можете голосовать в опросах
    Вы не можете прикреплять файлы к сообщениям
    Вы можете скачивать файлы