Всегда рабочее зеркало без VPN и Proxy просто перед .vidak.icu напиши любое слово или цифру, Пример http://a2hz.vidak.icu

Лицензия

MVO

1 сезон

1

1 сезон

iTunes

1 сезон

13

1 сезон

Deluxe

pack

Рекомендуем

Repack

30

ВАЖНО

RePack

MK11

RePack

jed

RePack

fifa19

RePack

RDR2

RePack

NEED FOR SPEED™ PAYBACK

Кинопоиск HD

6 сезон

 Острые козырьки 6 сезон

Все сериалы

все сериалы на PB.wtf

RePack

FAR CRY 5
  
Magnet ссылка

Бокс. Флойд Мейвезер - Андре Берто + aндеркарт [12.09] [2015, Бокс, HDTV 720p / 50 fps] Оригинал pb.wtf

Бокс. Флойд Мейвезер - Андре Берто + aндеркарт через торрент pb.wtf

Размер: 2.4 GB | Добавлен: 6 лет 11 мес. назад | Торрент скачан:43 раза
Смотреть онлайн Бокс. Флойд Мейвезер - Андре Берто + aндеркарт | Скачать    Ребята, помогите собрать деньги на оплату серверов!!!

13-09-2015 20:49 Бокс. Флойд Мейвезер - Андре Берто + aндеркарт Скачать торрент  

Floyd Mayweather Jr. vs. Andre Berto / Флойд Мейвезер - Андре Берто
Дата/Год выпуска: 12.09.2015

Вид спорта: Бокс

Язык комментариев: Английский

Канал: Showtime HD

Место проведения: "MGM Grand", Лас-Вегас, штат Невада, США.
Описание: Лучший боксер мира 38-ми летний американец Флойд Мейвезер-младший свой заключительный бой в карьере проведет на арене MGM Grand (Лас-Вегас) против своего соотечественника 31-го летнего Андре Берто. В этой встрече будут разыграны чемпионские пояса WBC и WBA Super в среднем весе принадлежащие Мейвезеру.
Автор рипа/записи: CHAMPiONS
Качество: HDTV 720p

Формат: MKV

Видео: 1280x720 (16:9), 50,000 fps, H264, ~5100 kbps avg, ~0.112 bit/pixel

Аудио: 48 kHz, MP2, 2/0 (L,R) ch, ~192.00 kbps avg
Общее
Уникальный идентификатор : 0 (0x0)
Полное имя : D:\Торенты\Floyd.Mayweather.vs.Andre.Berto.PPV.720p.HDTV.x264-CHAMPiONS.mkv
Формат : Matroska
Версия формата : Version 4 / Version 2
Размер файла : 2,40 Гбайт
Продолжительность : 1 ч. 3 м.
Общий поток : 5451 Кбит/сек
Дата кодирования : UTC 2010-02-22 21:41:29
Программа кодирования : no_variable_data
Библиотека кодирования : no_variable_data

Видео
Идентификатор : 1
Формат : AVC
Формат/Информация : Advanced Video Codec
Профиль формата : [email protected]
Параметр CABAC формата : Да
Параметр ReFrames формата : 5 кадров
Идентификатор кодека : V_MPEG4/ISO/AVC
Продолжительность : 1 ч. 3 м.
Битрейт : 5151 Кбит/сек
Ширина : 1280 пикселей
Высота : 720 пикселей
Соотношение сторон : 16:9
Режим частоты кадров : Постоянный
Частота кадров : 50,000 кадров/сек
Цветовое пространство : YUV
Субдискретизация насыщенности : 4:2:0
Битовая глубина : 8 бит
Тип развёртки : Прогрессивная
Бит/(Пиксели*Кадры) : 0.112
Размер потока : 2,27 Гбайт (94%)
Библиотека кодирования : x264 core 148 r2597 e86f3a1
Настройки программы : cabac=1 / ref=5 / deblock=1:0:0 / analyse=0x3:0x113 / me=umh / subme=8 / psy=1 / psy_rd=1.00:0.00 / mixed_ref=1 / me_range=16 / chroma_me=1 / trellis=1 / 8x8dct=1 / cqm=0 / deadzone=21,11 / fast_pskip=1 / chroma_qp_offset=-2 / threads=12 / lookahead_threads=2 / sliced_threads=0 / nr=0 / decimate=1 / interlaced=0 / bluray_compat=0 / constrained_intra=0 / bframes=3 / b_pyramid=2 / b_adapt=2 / b_bias=0 / direct=3 / weightb=1 / open_gop=0 / weightp=2 / keyint=250 / keyint_min=25 / scenecut=40 / intra_refresh=0 / rc_lookahead=50 / rc=crf / mbtree=1 / crf=22.0 / qcomp=0.60 / qpmin=0 / qpmax=69 / qpstep=4 / ip_ratio=1.40 / aq=1:1.00
Язык : English
Default : Да
Forced : Нет
Коэффициенты матрицы : BT.709
colour_range : Limited

Аудио
Идентификатор : 2
Формат : MPEG Audio
Версия формата : Version 1
Профиль формата : Layer 2
Режим : Dual mono
Расширение режима : Intensity Stereo + MS Stereo
Идентификатор кодека : A_MPEG/L2
Идентификатор кодека/Подсказка : MP2
Продолжительность : 1 ч. 3 м.
Вид битрейта : Постоянный
Битрейт : 192 Кбит/сек
Каналы : 2 канала
Частота : 48,0 КГц
Метод сжатия : С потерями
Размер потока : 86,7 Мбайт (4%)
Default : Да
Forced : Нет
1:03:06
pb.wtf



Скачать Бокс. Флойд Мейвезер - Андре Берто + aндеркарт через торрент http://i72.fastpic.ru/big/2015/0720/3c/72e75deede690da8e38a45fc3e62683c.png Скачать, смотреть онлайн Бокс. Флойд Мейвезер - Андре Берто + aндеркарт [12.09] [2015, Бокс, HDTV 720p бесплантно в хорошем качестве Описание: Лучший боксер мира 38-ми летний американец Флойд Мейвезер-младший свой заключительный бой в карьере проведет на арене MGM Grand ... 10 10 2
Info! Золотая раздача, скачанное не засчитывается.
Торрент: Зарегистрирован [2015-09-13 20:49] · скачан: 43 раз
Статус: √ проверено
Размер: 2.4 GB
Как cкачать? Как скачать Бокс. Флойд Мейвезер - Андре Берто + aндеркарт через торрент | UTorrent

28-11-2019 20:33  

Отключить вcю реклaмy на сайте

    Дорогой пользователь! Огромная просьба, поблагодарите релизера, оцените раздачу и оставьте свои комментарий, если Вы скачали Бокс. Флойд Мейвезер - Андре Берто + aндеркарт через торрент бесплатно!
    Комментировать посты могут только пользователи прошедшие не сложную регистрацию
    Показать сообщения:    

    Бокс. Флойд Мейвезер - Андре Берто + aндеркарт через торрент
    Скачать бесплатно Бокс. Флойд Мейвезер - Андре Берто + aндеркарт
    Бокс. Флойд Мейвезер - Андре Берто + aндеркарт скачать торрент
    Бокс. Флойд Мейвезер - Андре Берто + aндеркарт смотреть онлайн
    Cкачать фильм Бокс. Флойд Мейвезер - Андре Берто + aндеркарт бесплатно
    Бокс. Флойд Мейвезер - Андре Берто + aндеркарт скачать торрент в хорошем качестве
    Бокс. Флойд Мейвезер - Андре Берто + aндеркарт смотреть онлайн бесплатно в хорошем качестве


    Вы не можете начинать темы
    Вы не можете отвечать на сообщения
    Вы не можете редактировать свои сообщения
    Вы не можете удалять свои сообщения
    Вы не можете голосовать в опросах
    Вы не можете прикреплять файлы к сообщениям
    Вы можете скачивать файлы