2 сезон

iTunes

MVO

1

2 сезон

iTunes

iTunes

1 сезон

RePack

30

Ultimate

ВАЖНО

ИГРА 18+

pack

RePack

MK11
pack

Легкие деньги

RePack

jed

RePack

fifa19

RePack

RDR2

RePack

NEED FOR SPEED™ PAYBACK

4 сезон

9 сезон

Бесстыжие 9 сезон

Все сериалы

все сериалы на PB.wtf

RePack

FAR CRY 5

Anonymous, добрый день, мы не успеваем собрать деньги на оплату серверов за декабрь и январь, помогите нам пожалуйста в это трудное время. В качестве благодарности мы отключим Вам всю рекламу на сайте (укажите свой ник в строку Ваше имя)!

×
  
Magnet ссылка

Тепловой удар / Heatstroke (Эвелин Пурселл / Evelyn Purcell) [2013, США, триллер, HDRip] MVO pb.wtf

Тепловой удар через торрент pb.wtf

Размер: 1.37 GB | Добавлен: 5 лет 4 мес. назад | Торрент скачан:548 раз
Скачать  

14-09-2015 01:00 Тепловой удар Скачать торрент  

Тепловой удар / Heatstroke


  • Год выпуска: 2013
  • Страна: США
  • Жанр: триллер

  • Продолжительность: 01:31:38
  • Перевод: Профессиональный многоголосый закадровый [Официальный звук]
  • Режиссер: Эвелин Пурселл / Evelyn Purcell
  • В ролях:

    Стивен Дорфф (Paul), Уоррик Грайр (Bodley), Кэлвин Хейуорд (Foy), Светлана Меткина (Tally), Jeanne Nielson (Miriam), Andrew Roux (Dib), Ndalo Stofile (Nurse), Петер Стормаре (Mallick), Мэйси Уильямс (Josie)

  • Описание:
    Семейная поездка-сафари по пустыне омрачается убийством главы семейства. Встреча с браконьерами заставляет оставшихся в живых мачеху и падчерицу бороться за свои жизни.
  • Рейтинг:



  • Качество: HDRip
  • Формат: :AVI
  • Видео кодек: XviD
  • Аудио кодек: AC3
  • Видео: 720x320 (2.25:1), 1933 kbps, 23,976 fps, 0,350 bpp
  • Аудио: 2.0 / 48 kHz / 192 kbps / 16 bit
  • Релиз от: GEKADOL

    Код:

    General
    Complete name                            : H:\Teplovoj.ydar.2013.P.HDRip.avi
    Format                                   : AVI
    Format/Info                              : Audio Video Interleave
    File size                                : 1.37 GiB
    Duration                                 : 1h 31mn
    Overall bit rate                         : 2 135 Kbps
    Writing application                      : VirtualDubMod 1.5.10.2 (build 2540/release)
    Writing library                          : VirtualDubMod build 2540/release

    Video
    ID                                       : 0
    Format                                   : MPEG-4 Visual
    Format profile                           : Advanced Simple@L5
    Format settings, BVOP                    : 2
    Format settings, QPel                    : No
    Format settings, GMC                     : No warppoints
    Format settings, Matrix                  : Default (MPEG)
    Codec ID                                 : XVID
    Codec ID/Hint                            : XviD
    Duration                                 : 1h 31mn
    Bit rate                                 : 1 934 Kbps
    Width                                    : 720 pixels
    Height                                   : 320 pixels
    Display aspect ratio                     : 2.25:1
    Frame rate                               : 23.976 fps
    Color space                              : YUV
    Chroma subsampling                       : 4:2:0
    Bit depth                                : 8 bits
    Scan type                                : Progressive
    Compression mode                         : Lossy
    Bits/(Pixel*Frame)                       : 0.350
    Stream size                              : 1.24 GiB (91%)
    Writing library                          : XviD 1.2.1 (UTC 2008-12-04)

    Audio
    ID                                       : 1
    Format                                   : AC-3
    Format/Info                              : Audio Coding 3
    Mode extension                           : CM (complete main)
    Codec ID                                 : 2000
    Duration                                 : 1h 31mn
    Bit rate mode                            : Constant
    Bit rate                                 : 192 Kbps
    Channel(s)                               : 2 channels
    Channel positions                        : Front: L R
    Sampling rate                            : 48.0 KHz
    Bit depth                                : 16 bits
    Compression mode                         : Lossy
    Stream size                              : 126 MiB (9%)
    Alignment                                : Split accross interleaves
    Interleave, duration                     : 42 ms (1.00 video frame)
    Interleave, preload duration             : 500 ms




    Скриншоты:



    pb.wtf



  • Скачать Тепловой удар через торрент http://i5.imageban.ru/out/2015/09/14/394a7473440dc0482e8a08907d3ce87e.jpg Скачать фильм Тепловой удар через торрент бесплантно в хорошем качестве Описание: Семейная поездка-сафари по пустыне омрачается убийством главы семейства. Встреча с браконьерами заставляет оставшихся в живых ... 9.6 10 24
    Торрент: Зарегистрирован [2015-09-14 01:00] · скачан: 548 раз
    Статус: √ проверено
    Размер: 1.37 GB
    Как cкачать? Как скачать Тепловой удар через торрент | UTorrent

    % Раздел Тема Автор DL S | L
    Фильмы [HD 720p, 1080p] (Хороший звук DUB, MVO) [ 3.4 GB ] Тепловой удар / Heatstroke [2013 BDRip 720p] MVO GEKADOL Скачать
    1 | 0

    28-11-2019 20:33  

    Отключить всю рекламу на сайте

    14-09-2015 09:24 Тепловой удар Скачать торрент  

    к сожалению в этом фильме нет геев и главного героя - негра, а по сему фильм собрал всего пятерочку на кинопоиске. а это, в свою очередь, значит что можно под бутылочку-другую пиваса глянуть это кино. вот реально, таких щас мало встречается (без пидаров и негров) картин. всем адекватным киноманам посвящается...
    ну и... Россия вперед!pb.wtf



    14-09-2015 16:00 Тепловой удар Скачать торрент  

    tamburetko писал(а):

    к сожалению в этом фильме нет геев и главного героя - негра, а по сему фильм собрал всего пятерочку на кинопоиске. а это, в свою очередь, значит что можно под бутылочку-другую пиваса глянуть это кино. вот реально, таких щас мало встречается (без пидаров и негров) картин. всем адекватным киноманам посвящается...
    ну и... Россия вперед!

    yespb.wtf



    15-09-2015 11:33 Тепловой удар Скачать торрент  

    Боже какие же вы расисты! no no nopb.wtf



    16-09-2015 10:13 Тепловой удар Скачать торрент  

    tamburetko писал(а):

    к сожалению в этом фильме нет геев и главного героя - негра, а по сему фильм собрал всего пятерочку на кинопоиске. а это, в свою очередь, значит что можно под бутылочку-другую пиваса глянуть это кино. вот реально, таких щас мало встречается (без пидаров и негров) картин. всем адекватным киноманам посвящается...
    ну и... Россия вперед!

    Уже хочу посмотреть этот фильм!!!! А то так достали геи и главные герои негры!pb.wtf



    09-10-2015 19:08 Тепловой удар Скачать торрент  

    Фильм хороший,несмотря на отсутствие геев и негров
    Но реально раздражала глуповатая и взбалмошенная малолетка.Наверное сказывалось действие наркотиков,которые нашли у неё в 13 лет.pb.wtf



      Дорогой пользователь! Огромная просьба, поблагодарите релизера, оцените раздачу и оставьте свои комментарий, если Вы скачали Тепловой удар через торрент бесплатно! Внесите свою лепту в развитие PiratBit!
      Комментировать посты могут только пользователи прошедшие не сложную регистрацию
      Показать сообщения:    

      Тепловой удар через торрент
      Скачать бесплатно Тепловой удар
      Тепловой удар скачать торрент
      Тепловой удар смотреть онлайн
      Cкачать фильм Тепловой удар бесплатно
      Тепловой удар скачать торрент в хорошем качестве
      Тепловой удар смотреть онлайн бесплатно в хорошем качестве


      Вы не можете начинать темы
      Вы не можете отвечать на сообщения
      Вы не можете редактировать свои сообщения
      Вы не можете удалять свои сообщения
      Вы не можете голосовать в опросах
      Вы не можете прикреплять файлы к сообщениям
      Вы можете скачивать файлы