Ссылка на приватное зеркало нашего сайта всего за 1$. Внимание количество ограничено!!!

2 сезон

iTunes

1 сезон

1

iTunes

iTunes

iTunes

1 сезон

RePack

30

ИГРА 18+

pack

ВАЖНО

!!Акция!!

Alien_RageХит недели

RePack

MK11
pack

Забери бонус

RePack

jed

!!Акция!!

Alien_Rage

RePack

fifa19

RePack

Assassins Creed: Odyssey

RePack

NEED FOR SPEED™ PAYBACK

4 сезон

9 сезон

Бесстыжие 9 сезон

Все сериалы

все сериалы на PB.wtf

RePack

FAR CRY 5
  

Тепловой удар / Heatstroke (Эвелин Пурселл / Evelyn Purcell) [2013, США, триллер, BDRip 720p] MVO pb.wtf

Тепловой удар через торрент pb.wtf

Размер: 3.4 GB | Добавлен: 5 лет 1 мес. назад | Торрент скачан:104 раза
Скачать  

14-09-2015 01:19 Тепловой удар Скачать торрент  

Тепловой удар / Heatstroke


  • Год выпуска: 2013
  • Страна: США
  • Жанр: триллер

  • Продолжительность: 01:31:38
  • Перевод: Профессиональный многоголосый закадровый [Официальный звук]
  • Режиссер: Эвелин Пурселл / Evelyn Purcell
  • В ролях:

    Стивен Дорфф (Paul), Уоррик Грайр (Bodley), Кэлвин Хейуорд (Foy), Светлана Меткина (Tally), Jeanne Nielson (Miriam), Andrew Roux (Dib), Ndalo Stofile (Nurse), Петер Стормаре (Mallick), Мэйси Уильямс (Josie)

  • Описание:
    Семейная поездка-сафари по пустыне омрачается убийством главы семейства. Встреча с браконьерами заставляет оставшихся в живых мачеху и падчерицу бороться за свои жизни.
  • Рейтинг:



  • Качество: BDRip 720p
  • Формат: :MKV
  • Видео кодек: AVC
  • Аудио кодек: AC3
  • Видео: 1280x568 (2.25:1), 4670 kbps, 23,976 fps, 0,268 bpp
  • Аудио №1: русский / 2.0 / 48 kHz / 192 kbps / 16 bit |[Официальный звук]|
  • Аудио №2: английский / 5.1 / 48 kHz / 448 kbps / 16 bit
  • Релиз от: GEKADOL

    Код:

    General
    Unique ID                                : 212208240839768425988332079031162181517 (0x9FA5D20F6D701210B5C230728757178D)
    Complete name                            : H:\Teplovoj.ydar.2013.P.BDRip.720p.mkv
    Format                                   : Matroska
    Format version                           : Version 4 / Version 2
    File size                                : 3.40 GiB
    Duration                                 : 1h 31mn
    Overall bit rate                         : 5 311 Kbps
    Encoded date                             : UTC 2015-09-13 20:48:16
    Writing application                      : mkvmerge v8.2.0 ('World of Adventure') 64bit
    Writing library                          : libebml v1.3.1 + libmatroska v1.4.2
    DURATION                                 : 01:31:38.144000000
    NUMBER_OF_FRAMES                         : 171817
    NUMBER_OF_BYTES                          : 131955456
    _STATISTICS_WRITING_APP                  : mkvmerge v8.2.0 ('World of Adventure') 64bit
    _STATISTICS_WRITING_DATE_UTC             : 2015-09-13 20:48:16
    _STATISTICS_TAGS                         : BPS DURATION NUMBER_OF_FRAMES NUMBER_OF_BYTES

    Video
    ID                                       : 1
    Format                                   : AVC
    Format/Info                              : Advanced Video Codec
    Format profile                           : High@L4.1
    Format settings, CABAC                   : Yes
    Format settings, ReFrames                : 5 frames
    Codec ID                                 : V_MPEG4/ISO/AVC
    Duration                                 : 1h 31mn
    Bit rate                                 : 4 670 Kbps
    Width                                    : 1 280 pixels
    Height                                   : 568 pixels
    Display aspect ratio                     : 2.25:1
    Frame rate                               : 23.976 fps
    Color space                              : YUV
    Chroma subsampling                       : 4:2:0
    Bit depth                                : 8 bits
    Scan type                                : Progressive
    Bits/(Pixel*Frame)                       : 0.268
    Stream size                              : 2.92 GiB (86%)
    Writing library                          : x264 core 142 r2479 dd79a61
    Encoding settings                        : cabac=1 / ref=5 / deblock=1:0:0 / analyse=0x3:0x113 / me=umh / subme=8 / psy=1 / psy_rd=1.00:0.00 / mixed_ref=1 / me_range=16 / chroma_me=1 / trellis=1 / 8x8dct=1 / cqm=0 / deadzone=21,11 / fast_pskip=0 / chroma_qp_offset=-2 / threads=6 / lookahead_threads=1 / sliced_threads=0 / nr=0 / decimate=1 / interlaced=0 / bluray_compat=0 / constrained_intra=0 / bframes=3 / b_pyramid=2 / b_adapt=2 / b_bias=0 / direct=3 / weightb=1 / open_gop=0 / weightp=2 / keyint=250 / keyint_min=23 / scenecut=40 / intra_refresh=0 / rc_lookahead=50 / rc=2pass / mbtree=1 / bitrate=4670 / ratetol=1.0 / qcomp=0.60 / qpmin=0 / qpmax=69 / qpstep=4 / cplxblur=20.0 / qblur=0.5 / ip_ratio=1.40 / aq=1:1.00
    Default                                  : Yes
    Forced                                   : No
    DURATION                                 : 01:31:38.035000000
    NUMBER_OF_FRAMES                         : 131821
    NUMBER_OF_BYTES                          : 3209039016
    _STATISTICS_WRITING_APP                  : mkvmerge v8.2.0 ('World of Adventure') 64bit
    _STATISTICS_WRITING_DATE_UTC             : 2015-09-13 20:48:16
    _STATISTICS_TAGS                         : BPS DURATION NUMBER_OF_FRAMES NUMBER_OF_BYTES

    Audio #1
    ID                                       : 2
    Format                                   : AC-3
    Format/Info                              : Audio Coding 3
    Mode extension                           : CM (complete main)
    Codec ID                                 : A_AC3
    Duration                                 : 1h 31mn
    Bit rate mode                            : Constant
    Bit rate                                 : 192 Kbps
    Channel(s)                               : 2 channels
    Channel positions                        : Front: L R
    Sampling rate                            : 48.0 KHz
    Bit depth                                : 16 bits
    Compression mode                         : Lossy
    Stream size                              : 126 MiB (4%)
    Language                                 : Russian
    Default                                  : Yes
    Forced                                   : Yes

    Audio #2
    ID                                       : 3
    Format                                   : AC-3
    Format/Info                              : Audio Coding 3
    Mode extension                           : CM (complete main)
    Codec ID                                 : A_AC3
    Duration                                 : 1h 31mn
    Bit rate mode                            : Constant
    Bit rate                                 : 448 Kbps
    Channel(s)                               : 6 channels
    Channel positions                        : Front: L C R, Side: L R, LFE
    Sampling rate                            : 48.0 KHz
    Bit depth                                : 16 bits
    Compression mode                         : Lossy
    Stream size                              : 294 MiB (8%)
    Language                                 : English
    Default                                  : No
    Forced                                   : No




    Скриншоты:



    pb.wtf



  • Скачать Тепловой удар через торрент http://i6.imageban.ru/out/2015/09/14/30167a747d2a0f1ca1fb664387006cc4.jpg Скачать фильм Тепловой удар через торрент бесплантно в хорошем качестве Описание: Семейная поездка-сафари по пустыне омрачается убийством главы семейства. Встреча с браконьерами заставляет оставшихся в живых ... 10 10 6
    Торрент: Зарегистрирован [2015-09-14 01:19] · скачан: 104 раз
    Статус: √ проверено
    Размер: 3.4 GB
    Как cкачать? Как скачать Тепловой удар через торрент | qTorrent

    % Раздел Тема Автор DL S | L
    Фильмы 2013 [DVDrip, WEB-DLRip, HDrip] [ 1.37 GB ] Тепловой удар / Heatstroke [2013 HDRip] MVO GEKADOL Скачать
    1 | 0

    28-11-2019 20:33  

    Отключить всю рекламу на сайте

      Дорогой пользователь! Огромная просьба, поблагодарите релизера, оцените раздачу и оставьте свои комментарий, если Вы скачали Тепловой удар через торрент бесплатно! Внесите свою лепту в развитие PiratBit!
      Комментировать посты могут только пользователи прошедшие не сложную регистрацию
      Показать сообщения:    

      Тепловой удар через торрент
      Скачать бесплатно Тепловой удар
      Тепловой удар скачать торрент
      Тепловой удар смотреть онлайн
      Cкачать фильм Тепловой удар бесплатно
      Тепловой удар скачать торрент в хорошем качестве
      Тепловой удар смотреть онлайн бесплатно в хорошем качестве


      Вы не можете начинать темы
      Вы не можете отвечать на сообщения
      Вы не можете редактировать свои сообщения
      Вы не можете удалять свои сообщения
      Вы не можете голосовать в опросах
      Вы не можете прикреплять файлы к сообщениям
      Вы можете скачивать файлы