Мега распродажа FORZA HORIZON 4 ULTIMATE+ВСЕ DLC+ОНЛАЙН всего за 499р. 349 руб. (супер цена). Внимание количество ограничено!!!

iTunes

1+1

iTunes

мы

iTunes

1

1 сезон

Чернобыль

1 сезон

Ральф против интернета

Лицензия

ПШазам

8 сезон

Игра престолов

Лицензия

30
pack

ВАЖНО

!!Акция!!

Alien_RageХит недели

RePack

Resident Evil 21

ИГРА 18+

pack

RePack

Metro:Exodus

!!Акция!!

Alien_Rage

RePack

fifa19

RePack

Assassins Creed: Odyssey

RePack

NEED FOR SPEED™ PAYBACK

3 сезон

9 сезон

Бесстыжие 9 сезон

Все сериалы

все сериалы на PB.wtf

RePack

FAR CRY 5
Ребята, катастрофически не хватает 2730р. для оплаты серверов за ИЮНЬ (всвязи с блокировками трафик упал в 3 раза), 1-2р., выручайте.
  

Саботаж / Sabotage (Тибор Такач) [1996, Боевик, Триллер, Драма, BDRip-AVC] MVO+DVO+AVO pb.wtf

Саботаж через торрент pb.wtf

Размер: 2.81 GB | Добавлен: 3 года 10 мес. назад | Торрент скачан:80 раз
Скачать  

14-09-2015 14:07 Саботаж Скачать торрент  

Саботаж / Sabotage (1996) BDRip-AVC
Информация о фильме

Название: Саботаж

Оригинальное название: Sabotage

Год выхода: 1996

Производство: Канада / Applecreek Communications Inc., Applecreek Productions

Жанр: Боевик, Триллер, Драма

Перевод: Профессиональный (многоголосый закадровый), профессиональный (двухголосый закадровый), авторский (одноголосый закадровый)

Язык субтитров: Русский, английский

Вид субтитров: Вшитые отключаемые

Продолжительность: 01:39:28

Режиссер: Тибор Такач

Актеры: Марк Дакаскос, Кэрри-Энн Мосс, Тони Тодд, Грэм Грин, Джон Невилл, Джеймс Пёрселл, Сара Розен Фруитман, Ричард Култер, Хайди фон Паллеске, Джон Пол Янг

Описание:

Майкл Бишоп - бывший морской пехотинец. Однажды ему поручают очередное задание - участие в провальной операции по спасению заложников. Однако Бишопу лишь чудом удается выжить после того, как он получил семь пулевых ранений от профессионального убийцы. Майклу понадобилось долгое время на реабилитацию, но все же вскоре он вновь смог вернуться к работе. Проходит несколько лет, Бишоп работает телохранителем в одной семье. Но происходит невероятное - его подопечные становятся жертвами того же убийцы, что подстрелил Майкла. Бишоп знакомится с агентом ФБР, которая занимается расследованием этого дела. Вместе они идут по следам неуловимого преступника и вскоре им предстоит вступить в смертельную схватку с киллером...



Релиз от: FAGOT100 (NNM-CLUB)

Файл
Качество видео: BDRip-AVC

Формат: MKV

Видео: AVC, 1024x576 (16:9), 23.976 fps, 2 699 Kbps (0.191 bit/pixel)

Аудио #1: AC-3, 48.0 KHz, 6 ch, 384 Kbps, CBR (Russian) - двухголосый - «R5»

Аудио #2: AC-3, 48.0 KHz, 2 ch, 192 Kbps, CBR (Russian) - многоголосый - «РТР»

Аудио #3: AC-3, 48.0 KHz, 2 ch, 192 Kbps, CBR (Russian) - авторский - В.Горчаков

Аудио #4: AC-3, 48.0 KHz, 2 ch, 192 Kbps, CBR (Russian) - авторский - А.Кашкин (Первомайский)

Аудио #5: AC-3, 48.0 KHz, 2 ch, 192 Kbps, CBR (Ukrainian) - двухголосый - «ТВi»

Аудио #6: AC-3, 48.0 KHz, 2 ch, 192 Kbps, CBR (English) - оригинал
Формат : Matroska

Версия формата : Version 2

Размер файла : 2,81 Гбайт

Продолжительность : 1 ч. 39 м.

Общий поток : 4046 Кбит/сек

Дата кодирования : UTC 2015-09-14 12:42:17

Программа кодирования : mkvmerge v5.3.0 ('I could have danced') built on Feb 9 2012 10:38:07

Библиотека кодирования : libebml v1.2.3 + libmatroska v1.3.0

Attachements : poster 81.jpg

Видео

Идентификатор : 1

Формат : AVC

Формат/Информация : Advanced Video Codec

Профиль формата : High@L4.1

Параметр CABAC формата : Да

Параметр ReFrames формата : 10 кадров

Идентификатор кодека : V_MPEG4/ISO/AVC

Продолжительность : 1 ч. 39 м.

Битрейт : 2699 Кбит/сек

Ширина : 1024 пикселя

Высота : 576 пикселей

Соотношение сторон : 16:9

Режим частоты кадров : Постоянный

Частота кадров : 23,976 кадра/сек

Цветовое пространство : YUV

Субдискретизация насыщенности : 4:2:0

Битовая глубина : 8 бит

Тип развёртки : Прогрессивная

Бит/(Пиксели*Кадры) : 0.191

Размер потока : 1,82 Гбайт (65%)

Библиотека кодирования : x264 core 146 r2538 121396c

Настройки программы : cabac=1 / ref=10 / deblock=1:-3:-3 / analyse=0x3:0x133 / me=umh / subme=10 / psy=1 / psy_rd=1.00:0.05 / mixed_ref=1 / me_range=32 / chroma_me=1 / trellis=2 / 8x8dct=1 / cqm=0 / deadzone=21,11 / fast_pskip=0 / chroma_qp_offset=-3 / threads=12 / lookahead_threads=1 / sliced_threads=0 / nr=0 / decimate=0 / interlaced=0 / bluray_compat=0 / constrained_intra=0 / bframes=6 / b_pyramid=2 / b_adapt=2 / b_bias=0 / direct=3 / weightb=1 / open_gop=0 / weightp=2 / keyint=240 / keyint_min=23 / scenecut=40 / intra_refresh=0 / rc=2pass / mbtree=0 / bitrate=2699 / ratetol=1.0 / qcomp=0.60 / qpmin=0 / qpmax=69 / qpstep=4 / cplxblur=20.0 / qblur=0.5 / ip_ratio=1.40 / pb_ratio=1.30 / aq=1:1.00

Язык : English

Default : Да

Forced : Нет

Аудио #1

Идентификатор : 2

Формат : AC-3

Формат/Информация : Audio Coding 3

Расширение режима : CM (complete main)

Параметр Endianness формата : Big

Идентификатор кодека : A_AC3

Продолжительность : 1 ч. 39 м.

Вид битрейта : Постоянный

Битрейт : 384 Кбит/сек

Каналы : 6 каналов

Расположение каналов : Front: L C R, Side: L R, LFE

Частота : 48,0 КГц

Метод сжатия : С потерями

Размер потока : 273 Мбайт (9%)

Заголовок : DVO - «R5»

Язык : Russian

Default : Да

Forced : Нет

Аудио #2

Идентификатор : 3

Формат : AC-3

Формат/Информация : Audio Coding 3

Расширение режима : CM (complete main)

Параметр Endianness формата : Big

Идентификатор кодека : A_AC3

Продолжительность : 1 ч. 39 м.

Вид битрейта : Постоянный

Битрейт : 192 Кбит/сек

Каналы : 2 канала

Расположение каналов : Front: L R

Частота : 48,0 КГц

Метод сжатия : С потерями

Размер потока : 137 Мбайт (5%)

Заголовок : MVO - «РТР»

Язык : Russian

Default : Нет

Forced : Нет

Аудио #3

Идентификатор : 4

Формат : AC-3

Формат/Информация : Audio Coding 3

Расширение режима : CM (complete main)

Параметр Endianness формата : Big

Идентификатор кодека : A_AC3

Продолжительность : 1 ч. 39 м.

Вид битрейта : Постоянный

Битрейт : 192 Кбит/сек

Каналы : 2 канала

Расположение каналов : Front: L R

Частота : 48,0 КГц

Метод сжатия : С потерями

Размер потока : 137 Мбайт (5%)

Заголовок : AVO - В.Горчаков

Язык : Russian

Default : Нет

Forced : Нет

Аудио #4

Идентификатор : 5

Формат : AC-3

Формат/Информация : Audio Coding 3

Расширение режима : CM (complete main)

Параметр Endianness формата : Big

Идентификатор кодека : A_AC3

Продолжительность : 1 ч. 39 м.

Вид битрейта : Постоянный

Битрейт : 192 Кбит/сек

Каналы : 2 канала

Расположение каналов : Front: L R

Частота : 48,0 КГц

Метод сжатия : С потерями

Размер потока : 137 Мбайт (5%)

Заголовок : AVO - А.Кашкин (Первомайский)

Язык : Russian

Default : Нет

Forced : Нет

Аудио #5

Идентификатор : 6

Формат : AC-3

Формат/Информация : Audio Coding 3

Расширение режима : CM (complete main)

Параметр Endianness формата : Big

Идентификатор кодека : A_AC3

Продолжительность : 1 ч. 39 м.

Вид битрейта : Постоянный

Битрейт : 192 Кбит/сек

Каналы : 2 канала

Расположение каналов : Front: L R

Частота : 48,0 КГц

Метод сжатия : С потерями

Размер потока : 137 Мбайт (5%)

Заголовок : DVO - «ТВi» - Украинский

Язык : Ukrainian

Default : Нет

Forced : Нет

Аудио #6

Идентификатор : 7

Формат : AC-3

Формат/Информация : Audio Coding 3

Расширение режима : CM (complete main)

Параметр Endianness формата : Big

Идентификатор кодека : A_AC3

Продолжительность : 1 ч. 39 м.

Вид битрейта : Постоянный

Битрейт : 192 Кбит/сек

Каналы : 2 канала

Расположение каналов : Front: L R

Частота : 48,0 КГц

Метод сжатия : С потерями

Размер потока : 137 Мбайт (5%)

Заголовок : оригинал

Язык : English

Default : Нет

Forced : Нет

Текст #1

Идентификатор : 8

Формат : UTF-8

Идентификатор кодека : S_TEXT/UTF8

Идентификатор кодека/Информация : UTF-8 Plain Text

Язык : Russian

Default : Да

Forced : Нет

Текст #2

Идентификатор : 9

Формат : UTF-8

Идентификатор кодека : S_TEXT/UTF8

Идентификатор кодека/Информация : UTF-8 Plain Text

Язык : English

Default : Нет

Forced : Нет

Меню

00:00:00.000 : :Chapter 01

00:08:20.208 : :Chapter 02

00:21:19.444 : :Chapter 03

00:36:09.792 : :Chapter 04

00:51:31.171 : :Chapter 05

01:07:56.988 : :Chapter 06

01:21:55.535 : :Chapter 07

01:32:16.988 : :Chapter 08

01:39:25.167 : :Chapter 09
pb.wtf



Скачать Саботаж через торрент http://s017.radikal.ru/i403/1509/f7/db93746861d5.jpg Скачать фильм Саботаж через торрент бесплантно в хорошем качестве Описание: Майкл Бишоп - бывший морской пехотинец. Однажды ему поручают очередное задание - участие в провальной операции по спасению ... 10 10 6
Торрент: Зарегистрирован [2015-09-14 14:07] · скачан: 80 раз
Статус: √ проверено
Размер: 2.81 GB
Как cкачать? Как скачать Саботаж через торрент | qTorrent


>> Регистрируемся здесь <<






Отзывы и комментарии о схеме читаем и пишем здесь: ---> Отзывы и комментарии о схеме

Новые благодарочки в телеграм довольных пользователей:
скриншот   скриншот   скриншот   скриншот   скриншот
    Дорогой пользователь! Огромная просьба, поблагодарите релизера, оцените раздачу и оставьте свои комментарий, если Вы скачали Саботаж через торрент бесплатно! Внесите свою лепту в развитие PiratBit!
    Комментировать посты могут только пользователи прошедшие не сложную регистрацию
    Показать сообщения:    

    Саботаж через торрент
    Скачать бесплатно Саботаж
    Саботаж скачать торрент
    Саботаж смотреть онлайн
    Cкачать фильм Саботаж бесплатно
    Саботаж скачать торрент в хорошем качестве
    Саботаж смотреть онлайн бесплатно в хорошем качестве


    Вы не можете начинать темы
    Вы не можете отвечать на сообщения
    Вы не можете редактировать свои сообщения
    Вы не можете удалять свои сообщения
    Вы не можете голосовать в опросах
    Вы не можете прикреплять файлы к сообщениям
    Вы можете скачивать файлы