2 сезон

iTunes

MVO

1

2 сезон

iTunes

iTunes

1 сезон

RePack

30

Новинка

ВАЖНО

ИГРА 18+

pack

RePack

MK11
pack

Легкие деньги

RePack

jed

RePack

fifa19

RePack

RDR2

RePack

NEED FOR SPEED™ PAYBACK

4 сезон

9 сезон

Бесстыжие 9 сезон

Все сериалы

все сериалы на PB.wtf

RePack

FAR CRY 5

Anonymous, добрый вечер, мы не успеваем собрать деньги на оплату серверов за декабрь и январь, помогите нам пожалуйста в это трудное время. В качестве благодарности мы отключим Вам всю рекламу на сайте (укажите свой ник в строку Ваше имя)!

×
  
Magnet ссылка

Набережная Орсе / Quai d'Orsay (Бертран Тавернье) [2013, комедия, HDRip, Профессиональный многоголосый] (Официальный звук) pb.wtf

Набережная Орсе через торрент pb.wtf

Размер: 2.05 GB | Добавлен: 5 лет 4 мес. назад | Торрент скачан:110 раз
Скачать  

15-09-2015 12:00 Набережная Орсе Скачать торрент  

Набережная Орсе / Quai d'Orsay


Год выпуска: 2013
Страна: Франция
Жанр: комедия

Продолжительность: 01:53:54
Перевод: Профессиональный многоголосый (Официальный звук)
Режиссер: Бертран Тавернье
В ролях:

Тьерри Лермитт (Alexandre Taillard de Worms), Рафаэль Персонас (Arthur Vlaminck), Нильс Ареструп (Claude Maupas), Бруно Раффаэлли (Stéphane Cahut), Жюли Гайе (Valérie Dumontheil), Анаис Демустье (Marina), Тома Шаброль (Sylvain Marquet), Тьерри Фремон (Guillaume Van Effentem), Аликс Пуасон (Odile), Мари Бюнель (Martine), Жан-Марк Руло (Bertrand Castela), Соня Роллан (Nathalie)

Описание:
Молодой выпускник вуза Артур Вламинк получает в министерстве иностранных дел на набережной Орсе должность помощника министра. Теперь в его обязанности будет входить написание речей для выступлений министра на различных деловых встречах и мероприятиях. Проработав там некоторое время, он видит интриги и «подковёрную» борьбу между сотрудниками министерства за должности. И, если бы не такие сотрудники как Клод, который фактически не вылезает с работы вместе со своим котом, то работа представительного ведомства просто превратилась бы в хаос.
Рейтинг:


Качество: HDRip
Формат: AVI
Видео кодек: XviD
Аудио кодек: AC3
Видео: XviD, 720x384 (1.875), 1922 kbps, 24 fps, 0,290 bpp
Аудио №1: Русский AC3 / 2.0 / 48 kHz / 192 kbps / 16 bit
Аудио №2: Французский AC3 / 5.1 / 48 kHz / 448 kbps / 16 bit

Код:

Формат                                   : AVI
Формат/Информация                        : Audio Video Interleave
Профиль формата                          : OpenDML
Размер файла                             : 2,05 Гбайт
Продолжительность                        : 1 ч. 53 м.
Общий поток                              : 2581 Кбит/сек
Программа кодирования                    : VirtualDubMod 1.5.10.2 (build 2540/release)
Библиотека кодирования                   : VirtualDubMod build 2540/release

Видео
Идентификатор                            : 0
Формат                                   : MPEG-4 Visual
Профиль формата                          : Advanced Simple@L5
Параметр BVOP формата                    : 2
Параметр QPel формата                    : Нет
Параметр GMC формата                     : Без точки перехода
Параметр матрицы формата                 : Default (MPEG)
Идентификатор кодека                     : XVID
Идентификатор кодека/Подсказка           : XviD
Продолжительность                        : 1 ч. 53 м.
Битрейт                                  : 1922 Кбит/сек
Ширина                                   : 720 пикселей
Высота                                   : 384 пикселя
Соотношение сторон                       : 1,85:1
Частота кадров                           : 24,000 кадра/сек
Цветовое пространство                    : YUV
Субдискретизация насыщенности            : 4:2:0
Битовая глубина                          : 8 бит
Тип развёртки                            : Прогрессивная
Метод сжатия                             : С потерями
Бит/(Пиксели*Кадры)                      : 0.290
Размер потока                            : 1,53 Гбайт (74%)
Библиотека кодирования                   : XviD 1.2.1 (UTC 2008-12-04)

Аудио #1
Идентификатор                            : 1
Формат                                   : AC-3
Формат/Информация                        : Audio Coding 3
Расширение режима                        : CM (complete main)
Параметр Endianness формата              : Big
Идентификатор кодека                     : 2000
Продолжительность                        : 1 ч. 53 м.
Вид битрейта                             : Постоянный
Битрейт                                  : 192 Кбит/сек
Каналы                                   : 2 канала
Расположение каналов                     : Front: L R
Частота                                  : 48,0 КГц
Битовая глубина                          : 16 бит
Метод сжатия                             : С потерями
Размер потока                            : 156 Мбайт (7%)
Выравнивание                             : Разделение по промежуткам
Продолжительность промежутка             : 42  мс. (1,00 видеокадр)
Время предзагрузки промежутка            : 500  мс.

Аудио #2
Идентификатор                            : 2
Формат                                   : AC-3
Формат/Информация                        : Audio Coding 3
Расширение режима                        : CM (complete main)
Параметр Endianness формата              : Big
Идентификатор кодека                     : 2000
Продолжительность                        : 1 ч. 53 м.
Вид битрейта                             : Постоянный
Битрейт                                  : 448 Кбит/сек
Каналы                                   : 6 каналов
Расположение каналов                     : Front: L C R, Side: L R, LFE
Частота                                  : 48,0 КГц
Битовая глубина                          : 16 бит
Метод сжатия                             : С потерями
Размер потока                            : 365 Мбайт (17%)
Выравнивание                             : Разделение по промежуткам
Продолжительность промежутка             : 42  мс. (1,00 видеокадр)
Время предзагрузки промежутка            : 500  мс.



pb.wtf



Скачать Набережная Орсе через торрент http://i4.imageban.ru/out/2015/09/15/866ec742cac8fcadb7d763497dce40b6.jpg Скачать фильм Набережная Орсе через торрент бесплантно в хорошем качестве Описание: Молодой выпускник вуза Артур Вламинк получает в министерстве иностранных дел на набережной Орсе должность помощника министра. ... 5.5 10 4
Торрент: Зарегистрирован [2015-09-15 12:00] · скачан: 110 раз
Статус: √ проверено
Размер: 2.05 GB
Как cкачать? Как скачать Набережная Орсе через торрент | UTorrent

28-11-2019 20:33  

Отключить всю рекламу на сайте

16-09-2015 12:07 Набережная Орсе Скачать торрент  

Если честно я так и не понял про что фильм. За раздачу спасибо.pb.wtf



    Дорогой пользователь! Огромная просьба, поблагодарите релизера, оцените раздачу и оставьте свои комментарий, если Вы скачали Набережная Орсе через торрент бесплатно! Внесите свою лепту в развитие PiratBit!
    Комментировать посты могут только пользователи прошедшие не сложную регистрацию
    Показать сообщения:    

    Набережная Орсе через торрент
    Скачать бесплатно Набережная Орсе
    Набережная Орсе скачать торрент
    Набережная Орсе смотреть онлайн
    Cкачать фильм Набережная Орсе бесплатно
    Набережная Орсе скачать торрент в хорошем качестве
    Набережная Орсе смотреть онлайн бесплатно в хорошем качестве


    Вы не можете начинать темы
    Вы не можете отвечать на сообщения
    Вы не можете редактировать свои сообщения
    Вы не можете удалять свои сообщения
    Вы не можете голосовать в опросах
    Вы не можете прикреплять файлы к сообщениям
    Вы можете скачивать файлы