Ссылка на приватное зеркало всего за 1$. Внимание количество ограничено!!!

OK

1+1

iTunes

мы

OK

1

WEB-DLRip

Джокер

Пифагор

Ведьмак / The Witcher сериал

iTunes

ПШазам

ОК

Оно 2

iTunes

30
pack

Вам бонус

ВАЖНО

!!Акция!!

Alien_RageХит недели

RePack

Resident Evil 21

ИГРА 18+

pack

RePack

jed

RePack

fifa19

RePack

Assassins Creed: Odyssey

RePack

NEED FOR SPEED™ PAYBACK

4 сезон

9 сезон

Бесстыжие 9 сезон

Все сериалы

все сериалы на PB.wtf

RePack

FAR CRY 5
  

Дорога в Голливуд / The D Train (Эндрю Моугел / Andrew Mogel, Джеррад Пол / Jarrad Paul) [2015, Великобритания, США, комедия, HDRip, MVO] [Лицензия / iTunes] pb.wtf

Дорога в Голливуд через торрент pb.wtf

Размер: 1.37 GB | Добавлен: 4 года 4 мес. назад | Торрент скачан:312 раз
Скачать  

16-09-2015 01:35 Дорога в Голливуд Скачать торрент  

Дорога в Голливуд / The D Train
«Every reunion needs a hero»


  • Год выпуска: 2015
  • Страна: Великобритания, США
  • Жанр: комедия
  • Продолжительность: 01:41:10
  • Перевод: Профессиональный многоголосый закадровый) [Лицензия / iTunes]

  • Режиссер: Эндрю Моугел / Andrew Mogel, Джеррад Пол / Jarrad Paul
  • В ролях:

    Джек Блэк (Dan Landsman), Джеймс Марсден (Oliver Lawless), Кэтрин Хан (Stacey Landsman), Джеффри Тэмбор (Bill Shurmur), Расселл Познер (Zach Landsman), Генри Жебровский (Craig), Кайл Борнхаймер (Randy), Майк Уайт (Jerry), Коррина Лайонс (Lucy), Донна ДюПлантье (Taj), Charlotte Gale (Renina), Денис Уильямсон (Alyssa)

  • Описание:
    Герои этой истории - бывшие одноклассники, решившие устроить встречу выпускников. Один из них, в школе занимавшийся организацией мероприятий, решает сделать двадцатилетний юбилей выпуска самым запоминающимся в истории и стремится изо всех сил привезти на него самого популярного парня в школе, а ныне - актера-неудачника, снимающегося главным образом в рекламе, да и то не в самой лучшей.
  • Рейтинг:



  • Качество: HDRip
  • Формат: :AVI
  • Видео кодек: XviD
  • Аудио кодек: AC3
  • Видео: 720x304 (2.35:1), 1732 kbps, 23,976 fps, 0,330 bpp
  • Аудио: 2.0 / 48 kHz / 192 kbps / 16 bit
  • Релиз от: GEKADOL

    Код:

    General
    Complete name                            : H:\D0P0ga.v.G0LLyB00d.2015.P.HDRip.1400Mb.avi
    Format                                   : AVI
    Format/Info                              : Audio Video Interleave
    File size                                : 1.37 GiB
    Duration                                 : 1h 41mn
    Overall bit rate                         : 1 934 Kbps
    Writing application                      : VirtualDubMod 1.5.10.2 (build 2540/release)
    Writing library                          : VirtualDubMod build 2540/release

    Video
    ID                                       : 0
    Format                                   : MPEG-4 Visual
    Format profile                           : Advanced Simple@L5
    Format settings, BVOP                    : 2
    Format settings, QPel                    : No
    Format settings, GMC                     : No warppoints
    Format settings, Matrix                  : Default (MPEG)
    Codec ID                                 : XVID
    Codec ID/Hint                            : XviD
    Duration                                 : 1h 41mn
    Bit rate                                 : 1 733 Kbps
    Width                                    : 720 pixels
    Height                                   : 304 pixels
    Display aspect ratio                     : 2.35:1
    Frame rate                               : 23.976 fps
    Color space                              : YUV
    Chroma subsampling                       : 4:2:0
    Bit depth                                : 8 bits
    Scan type                                : Progressive
    Compression mode                         : Lossy
    Bits/(Pixel*Frame)                       : 0.330
    Stream size                              : 1.22 GiB (90%)
    Writing library                          : XviD 1.2.1 (UTC 2008-12-04)

    Audio
    ID                                       : 1
    Format                                   : AC-3
    Format/Info                              : Audio Coding 3
    Mode extension                           : CM (complete main)
    Codec ID                                 : 2000
    Duration                                 : 1h 41mn
    Bit rate mode                            : Constant
    Bit rate                                 : 192 Kbps
    Channel(s)                               : 2 channels
    Channel positions                        : Front: L R
    Sampling rate                            : 48.0 KHz
    Bit depth                                : 16 bits
    Compression mode                         : Lossy
    Stream size                              : 139 MiB (10%)
    Alignment                                : Split accross interleaves
    Interleave, duration                     : 42 ms (1.00 video frame)
    Interleave, preload duration             : 500 ms




    Скриншоты:



    pb.wtf



  • Скачать Дорога в Голливуд через торрент http://i2.imageban.ru/out/2015/09/16/8f2251f87d93baa7bd0098630463f62c.jpg Скачать фильм Дорога в Голливуд через торрент бесплантно в хорошем качестве Описание: Герои этой истории - бывшие одноклассники, решившие устроить встречу выпускников. Один из них, в школе занимавшийся организацией ... 7.8 10 17
    Info! Золотая раздача, скачанное не засчитывается.
    Торрент: Зарегистрирован [2015-09-16 01:35] · скачан: 312 раз
    Статус: √ проверено
    Размер: 1.37 GB
    Как cкачать? Как скачать Дорога в Голливуд через торрент | qTorrent

    % Раздел Тема Автор DL S | L
    Фильмы 2015 [DVDrip, WEB-DLRip, HDrip] [ 2.04 GB ] Дорога в Голливуд / The D Train [2015 BDRip / Ворон Скачать
    1 | 0
    Фильмы 2015 [DVDrip, WEB-DLRip, HDrip] [ 1.41 GB ] Дорога в Голливуд / The D Train [2015 BDRip [] Twi7ter Скачать
    1 | 0
    Фильмы [HD 720p, 1080p] (Хороший звук DUB, MVO) [ 3.81 GB ] Дорога в Голливуд / The D Train [2015 BDRip 720p MVO] +ENG GEKADOL Скачать
    1 | 0
    Фильмы 2015 [DVDrip, WEB-DLRip, HDrip] [ 1.28 GB ] Дорога в Голливуд / The D Train [2015 BDRip-AVC] MVO potroks Скачать
    1 | 0
    Фильмы 2015 [DVDrip, WEB-DLRip, HDrip] [ 707 MB ] Дорога в Голливуд / The D Train [2015 HDRip многоголосый закадровый ""] coc900 Скачать
    1 | 0
    T Фильмы [HD 720p, 1080p] (Хороший звук DUB, MVO) [ 7.78 GB ] Дорога в Голливуд / The D Train [2015 BDRip 1080p MVO] + ENG GEKADOL Скачать
    1 | 0

    28-11-2019 20:33  

    Отключить всю рекламу на сайте

    16-09-2015 06:47 Дорога в Голливуд Скачать торрент  

    Народ, не трогайте это. Фильм построен на гей-теме.
    Главный герой - пи***ас. Весь сюжет развивается
    через его постель. Хорошо, я отзывы сперва почитал.

    P.S. Голливуд, по ходу, ничего другого скоро снимать
    уже не будет.pb.wtf



    16-09-2015 10:11 Дорога в Голливуд Скачать торрент  

    Фильм ничего не пропагандирует напрямую. Но он вполне вписывается в концепцию «если ты родился мужчиной, это еще не значит, что ты обязан им оставаться.Финал оставил впечатление в духе «ребятки, это может произойти с каждым, не переживайте, все нормально». Именно из-за этой нормальности этот фильм мне и не понравился.Чисто технически фильм средний. Как комедия не смешной.pb.wtf



    16-09-2015 12:52 Дорога в Голливуд Скачать торрент  

    Kakuha, bibikovmast, Спасибо, что предупредили. pb.wtf



    16-09-2015 14:02 Дорога в Голливуд Скачать торрент  

    skylol писал(а):

    Kakuha, bibikovmast, Спасибо, что предупредили.


    А то палец уже дрогнул скачать pb.wtf



      Дорогой пользователь! Огромная просьба, поблагодарите релизера, оцените раздачу и оставьте свои комментарий, если Вы скачали Дорога в Голливуд через торрент бесплатно! Внесите свою лепту в развитие PiratBit!
      Комментировать посты могут только пользователи прошедшие не сложную регистрацию
      Показать сообщения:    

      Дорога в Голливуд через торрент
      Скачать бесплатно Дорога в Голливуд
      Дорога в Голливуд скачать торрент
      Дорога в Голливуд смотреть онлайн
      Cкачать фильм Дорога в Голливуд бесплатно
      Дорога в Голливуд скачать торрент в хорошем качестве
      Дорога в Голливуд смотреть онлайн бесплатно в хорошем качестве


      Вы не можете начинать темы
      Вы не можете отвечать на сообщения
      Вы не можете редактировать свои сообщения
      Вы не можете удалять свои сообщения
      Вы не можете голосовать в опросах
      Вы не можете прикреплять файлы к сообщениям
      Вы можете скачивать файлы