Ссылка на приватное зеркало нашего сайта всего за 1$. Внимание количество ограничено!!!

2 сезон

iTunes

1 сезон

1

iTunes

iTunes

iTunes

1 сезон

RePack

30

ИГРА 18+

pack

ВАЖНО

!!Акция!!

Alien_RageХит недели

RePack

MK11
pack

Забери бонус

RePack

jed

!!Акция!!

Alien_Rage

RePack

fifa19

RePack

Assassins Creed: Odyssey

RePack

NEED FOR SPEED™ PAYBACK

4 сезон

9 сезон

Бесстыжие 9 сезон

Все сериалы

все сериалы на PB.wtf

RePack

FAR CRY 5
  

Скотоводческая компания Калпеппера / The Culpepper Cattle Co (Дик Ричардс) [1972, вестерн, BDRip 720p by msltel] AVO pb.wtf

Скотоводческая компания Калпеппера через торрент pb.wtf

Размер: 3.23 GB | Добавлен: 5 лет 1 мес. назад | Торрент скачан:18 раз
Скачать  

16-09-2015 11:20 Скотоводческая компания Калпеппера Скачать торрент  

Название: Скотоводческая компания Калпеппера
Оригинальное название: The Culpepper Cattle Co
Год выпуска: 1972
Страна: США
Жанр: вестерн
Продолжительность: 01:28:32
Перевод: авторский

Режиссёр: Дик Ричардс

В ролях: Гэри Граймс, Билли Буш, Люк Эскью, Бо Хопкинс, Джеффри Льюис, Уэйн Сазерлин

Описание: Неплохая попытка построить поэтичный и стилизованный балет смерти в жанровых рамках вестерна. Гэри Граймс - в роли подростка, взрослеющего в ходе тяжёлого перегона скота. Сюжет сценаристы снабдили соответствующими диалогами: все персонажи неразборчиво и ворчливо бормочут себе под нос самые неоспоримые афоризмы с очень важным видом. Калпеппер, суровый управляющй ранчо, придирающийся к Граймсу, парню весёлому, лёгкому и естественному — самый удачный образ в фильме. Его-то Граймс и уговаривает взять с собой в перегон. Много взрывного насилия, и убивают очень много людей...



Качество: BDRip 720p Сравнение с исходником
Формат: MKV
Видео: MPEG-4 AVC, 4731 Кбит/с, 1280x694, 25 кадра/с
Аудио 1: русский, AC3, 192 kbps, 2 ch, 48 kHz [авторский, Андрей Гаврилов]
Аудио 2: английский, AC3, 192 kbps, 2 ch, 48 kHz [оригинал]
Субтитры: английские
Общее
Уникальный идентификатор : 235304083812616156390171205513003279384 (0xB105EB08F01CCBC1948098447DFE2418)
Полное имя : D:VideoСкотогоны.1972.BDRip.720p.mkv
Формат : Matroska
Версия формата : Version 4 / Version 2
Размер файла : 3,23 Гбайт
Продолжительность : 1 ч. 28 м.
Общий поток : 5219 Кбит/сек
Название фильма : BDRip -- STarankov
Дата кодирования : UTC 2015-09-16 06:44:57
Программа кодирования : mkvmerge v8.2.0 ('World of Adventure') 64bit
Библиотека кодирования : libebml v1.3.1 + libmatroska v1.4.2
DURATION : 01:24:49.198000000
NUMBER_OF_FRAMES : 789
NUMBER_OF_BYTES : 26274
_STATISTICS_WRITING_APP : mkvmerge v8.2.0 ('World of Adventure') 64bit
_STATISTICS_WRITING_DATE_UTC : 2015-09-16 06:44:57
_STATISTICS_TAGS : BPS DURATION NUMBER_OF_FRAMES NUMBER_OF_BYTES

Видео
Идентификатор : 1
Формат : AVC
Формат/Информация : Advanced Video Codec
Профиль формата : High@L4.1
Параметр CABAC формата : Да
Параметр ReFrames формата : 9 кадров
Идентификатор кодека : V_MPEG4/ISO/AVC
Продолжительность : 1 ч. 28 м.
Битрейт : 4731 Кбит/сек
Ширина : 1280 пикселей
Высота : 694 пикселя
Соотношение сторон : 1,85:1
Режим частоты кадров : Постоянный
Частота кадров : 25,000 кадров/сек
Цветовое пространство : YUV
Субдискретизация насыщенности : 4:2:0
Битовая глубина : 8 бит
Тип развёртки : Прогрессивная
Бит/(Пиксели*Кадры) : 0.213
Размер потока : 2,93 Гбайт (91%)
Библиотека кодирования : x264 core 146 r2538 121396c
Настройки программы : cabac=1 / ref=9 / deblock=1:-3:-3 / analyse=0x3:0x113 / me=umh / subme=10 / psy=1 / psy_rd=1.00:0.15 / mixed_ref=1 / me_range=32 / chroma_me=1 / trellis=2 / 8x8dct=1 / cqm=0 / deadzone=21,11 / fast_pskip=1 / chroma_qp_offset=-3 / threads=6 / lookahead_threads=1 / sliced_threads=0 / nr=0 / decimate=1 / interlaced=0 / bluray_compat=0 / constrained_intra=0 / bframes=9 / b_pyramid=2 / b_adapt=2 / b_bias=0 / direct=1 / weightb=1 / open_gop=0 / weightp=2 / keyint=240 / keyint_min=24 / scenecut=40 / intra_refresh=0 / rc_lookahead=40 / rc=crf / mbtree=0 / crf=19.4 / qcomp=0.60 / qpmin=0 / qpmax=69 / qpstep=4 / vbv_maxrate=40000 / vbv_bufsize=50000 / crf_max=0.0 / nal_hrd=none / filler=0 / ip_ratio=1.40 / pb_ratio=1.30 / aq=1:1.00
Язык : English
Default : Да
Forced : Нет
DURATION : 01:28:32.680000000
NUMBER_OF_FRAMES : 132817
NUMBER_OF_BYTES : 3209375959
_STATISTICS_WRITING_APP : mkvmerge v8.2.0 ('World of Adventure') 64bit
_STATISTICS_WRITING_DATE_UTC : 2015-09-16 06:44:57
_STATISTICS_TAGS : BPS DURATION NUMBER_OF_FRAMES NUMBER_OF_BYTES

Аудио #1
Идентификатор : 2
Формат : AC-3
Формат/Информация : Audio Coding 3
Расширение режима : CM (complete main)
Параметр Endianness формата : Big
Идентификатор кодека : A_AC3
Продолжительность : 1 ч. 28 м.
Вид битрейта : Постоянный
Битрейт : 192 Кбит/сек
Каналы : 2 канала
Расположение каналов : Front: L R
Частота : 48,0 КГц
Метод сжатия : С потерями
Размер потока : 122 Мбайт (4%)
Заголовок : AVO (Андрей Гаврилов)
Язык : Russian
Default : Да
Forced : Нет

Аудио #2
Идентификатор : 3
Формат : AC-3
Формат/Информация : Audio Coding 3
Расширение режима : CM (complete main)
Параметр Endianness формата : Big
Идентификатор кодека : A_AC3
Продолжительность : 1 ч. 28 м.
Вид битрейта : Постоянный
Битрейт : 192 Кбит/сек
Каналы : 2 канала
Расположение каналов : Front: L R
Частота : 48,0 КГц
Метод сжатия : С потерями
Размер потока : 122 Мбайт (4%)
Заголовок : Original
Язык : English
Default : Нет
Forced : Нет

Текст
Идентификатор : 4
Формат : UTF-8
Идентификатор кодека : S_TEXT/UTF8
Идентификатор кодека/Информация : UTF-8 Plain Text
Заголовок : английский
Язык : English
Default : Нет
Forced : Нет
pb.wtf



Скачать Скотоводческая компания Калпеппера через торрент http://i66.fastpic.ru/big/2015/0916/a2/f4012ea6dc74058ccb1647362607cfa2.jpg Скачать фильм Скотоводческая компания Калпеппера через торрент бесплантно в хорошем качестве Описание: Неплохая попытка построить поэтичный и стилизованный балет смерти в жанровых рамках вестерна. Гэри Граймс - в роли подростка, ... 10 10 2
Info! Золотая раздача, скачанное не засчитывается.
Торрент: Зарегистрирован [2015-09-16 11:20] · скачан: 18 раз
Статус: √ проверено
Размер: 3.23 GB
Как cкачать? Как скачать Скотоводческая компания Калпеппера через торрент | qTorrent

% Раздел Тема Автор DL S | L
Фильмы [HD 720p, 1080p] (Хороший звук DUB, MVO) [ 8.13 GB ] Скотоводческая компания Калпеппера / The Culpepper Cattle Co [1972 BDRip 1080p by msltel] AVO msltel Скачать
1 | 0
Фильмы до 2000 г. [ 2.03 GB ] Скотоводческая компания Калпеппера / The Culpepper Cattle Co [1972 BDRip AVC by msltel] AVO msltel Скачать
1 | 0

28-11-2019 20:33  

Отключить всю рекламу на сайте

    Дорогой пользователь! Огромная просьба, поблагодарите релизера, оцените раздачу и оставьте свои комментарий, если Вы скачали Скотоводческая компания Калпеппера через торрент бесплатно! Внесите свою лепту в развитие PiratBit!
    Комментировать посты могут только пользователи прошедшие не сложную регистрацию
    Показать сообщения:    

    Скотоводческая компания Калпеппера через торрент
    Скачать бесплатно Скотоводческая компания Калпеппера
    Скотоводческая компания Калпеппера скачать торрент
    Скотоводческая компания Калпеппера смотреть онлайн
    Cкачать фильм Скотоводческая компания Калпеппера бесплатно
    Скотоводческая компания Калпеппера скачать торрент в хорошем качестве
    Скотоводческая компания Калпеппера смотреть онлайн бесплатно в хорошем качестве


    Вы не можете начинать темы
    Вы не можете отвечать на сообщения
    Вы не можете редактировать свои сообщения
    Вы не можете удалять свои сообщения
    Вы не можете голосовать в опросах
    Вы не можете прикреплять файлы к сообщениям
    Вы можете скачивать файлы