MEGA NEWS Получи личный уникальный адрес сайта и защити себя от блокировок. Внимание количество ограничено!!!

iTunes

1+1

iTunes

мы

iTunes

1

iTunes

Чернобыль

iTunes

Ральф против интернета

Лицензия

ПШазам

Лицензия

Игра престолов

Лицензия

30
pack

ВАЖНО

!!Акция!!

Alien_RageХит недели

RePack

Resident Evil 21

ИГРА 18+

pack

RePack

Metro:Exodus

!!Акция!!

Alien_Rage

RePack

fifa19

RePack

Assassins Creed: Odyssey

RePack

NEED FOR SPEED™ PAYBACK

3 сезон

9 сезон

Бесстыжие 9 сезон

Все сериалы

все сериалы на PB.wtf

RePack

FAR CRY 5
Ребята, катастрофически не хватает 1900р. для оплаты серверов за АВГУСТ (всвязи с блокировками трафик упал в 3 раза), 1-2р., выручайте.
  

День сурка / Groundhog Day (Харольд Рэмис / Harold Ramis) [1993, фантастика, мелодрама, комедия, HDRip] [Dub] (Ленфильм) pb.wtf

День сурка через торрент pb.wtf

Размер: 1.45 GB | Добавлен: 4 года 1 мес. назад | Торрент скачан:490 раз
Скачать  

16-09-2015 19:37 День сурка Скачать торрент  

День сурка / Groundhog Day
Год выпуска: 1993
Страна: США
Жанр: фантастика, мелодрама, комедия
Продолжительность: 01:41:03
Перевод: Профессиональный (дублированный) Ленфильм
Cубтитры: нет

Режиссер: Харольд Рэмис / Harold Ramis

В ролях: Билл Мюррей, Энди МакДауэлл, Крис Эллиот, Стивен Тоболовски, Брайан Дойл-Мюррей, Марита Герати Телевизионный комментатор Фил Коннорс каждый год приезжает в маленький городок в штате Пенсильвания на празднование Дня сурка. Но на этот раз веселье рискует зайти слишком далеко. Время сыграло с ним злую шутку: оно взяло да и остановилось.
Теперь на календаре Фила чернеет одна и та же дата — 2 февраля, из которой он никак не может выбраться. Неунывающий ведущий пытается извлечь выгоду из своего комичного положения: впереди у него уйма времени и безмятежное предсказуемое будущее.
Отныне с ним не случится ничего плохого… и ничего хорошего. У Фила осталась одна заветная мечта, простая и незамысловатая — 3 февраля…

Сэмпл

Качество видео: HDRip
Формат видео: AVI
Видео кодек: XviD
Аудио кодек: AC3
Видео: 720x384 (1.88:1), 23.976 fps, XviD build 50 ~1852 kbps avg, 0.28 bit/pixel
Аудио: 48 kHz, AC3 Dolby Digital, 2/0 (L,R) ch, ~192.00 kbps avg

Цитата:

Sergunka172
За синхронизацию звуковой дороги и работу со звуком огромная благодарность ale_x2008
Перевод: Дублированный - Ленфильм
В звуковой дорожке есть несколько небольших (по 2-3 сек.) вставок из перевода РТР

General
Complete name : C:\Users\День сурка (Ленфильм).avi
Format : AVI
Format/Info : Audio Video Interleave
File size : 1.45 GiB
Duration : 1h 41mn
Overall bit rate : 2 054 Kbps
Writing application : VirtualDubMod 1.5.10.3 (build 2550/release)
Writing library : VirtualDubMod build 2550/release
Original source form/Name : Movie
Video
ID : 0
Format : MPEG-4 Visual
Format profile : Advanced Simple@L5
Format settings, BVOP : 1
Format settings, QPel : No
Format settings, GMC : No warppoints
Format settings, Matrix : Custom
Codec ID : XVID
Codec ID/Hint : XviD
Duration : 1h 41mn
Bit rate : 1 853 Kbps
Width : 720 pixels
Height : 384 pixels
Display aspect ratio : 1.85:1
Frame rate : 23.976 fps
Color space : YUV
Chroma subsampling : 4:2:0
Bit depth : 8 bits
Scan type : Progressive
Compression mode : Lossy
Bits/(Pixel*Frame) : 0.280
Stream size : 1.31 GiB (90%)
Writing library : XviD 1.2.1 (UTC 2008-12-04)
Audio
ID : 1
Format : AC-3
Format/Info : Audio Coding 3
Mode extension : CM (complete main)
Format settings, Endianness : Big
Codec ID : 2000
Duration : 1h 41mn
Bit rate mode : Constant
Bit rate : 192 Kbps
Channel(s) : 2 channels
Channel positions : Front: L R
Sampling rate : 48.0 KHz
Bit depth : 16 bits
Compression mode : Lossy
Stream size : 139 MiB (9%)
Alignment : Split accross interleaves
Interleave, duration : 42 ms (1.00 video frame)
Interleave, preload duration : 500 ms
pb.wtf



Скачать День сурка через торрент http://i70.fastpic.ru/big/2015/0916/92/883b14df03a666bfcab7bf57c24e6392.jpg Скачать фильм День сурка через торрент бесплантно в хорошем качестве В ролях: Билл Мюррей, Энди МакДауэлл, Крис Эллиот, Стивен Тоболовски, Брайан Дойл-Мюррей, Марита Герати Телевизионный комментатор Фил ... 9.7 10 13
Info! Серебряная раздача, засчитывается только 50% скачанного.
Торрент: Зарегистрирован [2015-09-16 19:37] · скачан: 490 раз
Статус: √ проверено
Размер: 1.45 GB
Как cкачать? Как скачать День сурка через торрент | qTorrent

% Раздел Тема Автор DL S | L
Ultra HD (UHD: 2K, 4K, 8K) — видео сверхвысокой чёткости [ 30.47 GB ] День сурка / Groundhog Day [1993 UHD BDRip 2160p] DUB + 3xMVO + 2xAVO sheker187 Скачать
1 | 0
Ultra HD (UHD: 2K, 4K, 8K) — видео сверхвысокой чёткости [ 54.6 GB ] День сурка / Groundhog Day [1993 UHD Blu-ray 2160p] MVO [ EUR] bober100 Скачать
2 | 0
Фильмы до 2000 г. [ 1.5 GB ] День сурка / Groundhog Day [1993 BDRip-AVC] 2x[MVO] + [AVO] killermax2013 Скачать
1 | 1
Фильмы до 2000 г. [ 3.36 GB ] День сурка / Groundhog Day [1993 фантастическая DVD5 лицензия] irbis_yu Скачать
1 | 0
Ultra HD (UHD: 2K, 4K, 8K) — видео сверхвысокой чёткости [ 54.94 GB ] День сурка / Groundhog Day [1993 UHD BDRemux 2160p] DUB+3xMVO+DVO+5AVO bober100 Скачать
1 | 0
Фильмы (HD 720p, 1080p) (48-60 fps) [ 11.27 GB ] День сурка / Groundhog Day [1993 BDRip 1080p / 60 FPS многоголосый] Tiberiumsun69 Скачать
2 | 0
Фильмы [HD 720p, 1080p] (Хороший звук DUB, MVO) [ 7.95 GB ] День сурка / Groundhog Day [1993 BDRip ] k@rl$on Скачать
1 | 0


>> Регистрируемся здесь <<






Отзывы и комментарии о схеме читаем и пишем здесь: ---> Отзывы и комментарии о схеме

Новые благодарочки в телеграм довольных пользователей:
скриншот   скриншот   скриншот   скриншот   скриншот

16-09-2015 20:48 День сурка Скачать торрент  

Как бы релиз с дуближом в 1080р или отдельно дорожку под релиз с продолжительностью 01:41:04.pb.wtf



16-09-2015 21:12 День сурка Скачать торрент  

DavieDzhons писал(а):

Как бы релиз с дуближом в 1080р или отдельно дорожку под релиз с продолжительностью 01:41:04.

качаете 1080,от сюда дорожку вытаскиваете и цепляете туда,делов на пару минутpb.wtf



16-09-2015 22:12 День сурка Скачать торрент  

смотрю его каждый год на 2-е фев )pb.wtf



21-09-2015 03:25 День сурка Скачать торрент  

а я прям каждый день звуковые дорожки цепляю pb.wtf



21-09-2015 08:18 День сурка Скачать торрент  

gop1 писал(а):

а я прям каждый день звуковые дорожки цепляю



pb.wtf



02-12-2017 21:32 День сурка Скачать торрент  

Спасибо раздающему...pb.wtf



    Дорогой пользователь! Огромная просьба, поблагодарите релизера, оцените раздачу и оставьте свои комментарий, если Вы скачали День сурка через торрент бесплатно! Внесите свою лепту в развитие PiratBit!
    Комментировать посты могут только пользователи прошедшие не сложную регистрацию
    Показать сообщения:    

    День сурка через торрент
    Скачать бесплатно День сурка
    День сурка скачать торрент
    День сурка смотреть онлайн
    Cкачать фильм День сурка бесплатно
    День сурка скачать торрент в хорошем качестве
    День сурка смотреть онлайн бесплатно в хорошем качестве


    Вы не можете начинать темы
    Вы не можете отвечать на сообщения
    Вы не можете редактировать свои сообщения
    Вы не можете удалять свои сообщения
    Вы не можете голосовать в опросах
    Вы не можете прикреплять файлы к сообщениям
    Вы можете скачивать файлы